Cow and Chicken T1 [Tv-rip Tooncast-CN]



Capturas de TV realizadas en el año 2018 en la señal satelital de Tooncast y CNHD

Sinopsis:
Cow & Chicken trata sobre las aventuras de dos hermanos, una vaca y un pollo. Sus padres son un par de piernas cada uno sin torso y casi siempre los hermanos son atormentados por el Hombre Rojo (Trasero Rojo), una versión patética del diablo que interpreta diferentes personajes en numerosos episodios, y que casi nunca lleva pantalones.
Caracteristicas:
SD:
Format                         : MPEG-TS
File size                      : 73.0 MiB
Duration                       : 6 min 51 s
Overall bit rate mode          : Variable
Overall bit rate               : 1 488 kb/s

Video
ID                             : 2234 (0x8BA)
Menu ID                        : 312 (0x138)
Format                         : MPEG Video
Format version                 : Version 2
Format profile                 : [email protected]
Format settings, BVOP          : Yes
Format settings, Matrix        : Custom
Format settings, GOP           : Variable
Format settings, picture struc : Frame
Codec ID                       : 2
Duration                       : 6 min 51 s
Bit rate mode                  : Variable
Bit rate                       : 1 285 kb/s
Maximum bit rate               : 15.0 Mb/s
Width                          : 640 pixels
Height                         : 480 pixels
Display aspect ratio           : 4:3
Frame rate                     : 29.970 (30000/1001) FPS
Color space                    : YUV
Chroma subsampling             : 4:2:0
Bit depth                      : 8 bits
Scan type                      : Interlaced
Scan order                     : Top Field First
Compression mode               : Lossy
Bits/(Pixel*Frame)             : 0.140
Time code of first frame       : 00:00:00;00
Time code source               : Group of pictures header
GOP, Open/Closed               : Open
GOP, Open/Closed of first fram : Closed
Stream size                    : 63.0 MiB (86%)

Audio
ID                             : 3202 (0xC82)
Menu ID                        : 312 (0x138)
Format                         : MPEG Audio
Format version                 : Version 1
Format profile                 : Layer 2
Codec ID                       : 3
Duration                       : 6 min 51 s
Bit rate mode                  : Constant
Bit rate                       : 128 kb/s
Channel(s)                     : 1 channel
Sampling rate                  : 48.0 kHz
Compression mode               : Lossy
Delay relative to video        : 12 ms
Stream size                    : 6.28 MiB (9%)

HD
Format                         : MPEG-TS
File size                      : 238 MiB
Duration                       : 6 min 51 s
Overall bit rate mode          : Variable
Overall bit rate               : 4 847 kb/s

Video
ID                             : 2031 (0x7EF)
Menu ID                        : 683 (0x2AB)
Format                         : AVC
Format/Info                    : Advanced Video Codec
Format profile                 : [email protected]
Format settings, CABAC         : Yes
Format settings, RefFrames     : 4 frames
Codec ID                       : 27
Duration                       : 6 min 51 s
Width                          : 1 920 pixels
Height                         : 1 080 pixels
Display aspect ratio           : 16:9
Frame rate                     : 29.970 (30000/1001) FPS
Color space                    : YUV
Chroma subsampling             : 4:2:0
Bit depth                      : 8 bits
Scan type                      : Interlaced
Scan type, store method        : Separated fields
Scan order                     : Top Field First
Color range                    : Limited
Color primaries                : BT.709
Transfer characteristics       : BT.709
Matrix coefficients            : BT.709

Audio
ID                             : 2032 (0x7F0)
Menu ID                        : 683 (0x2AB)
Format                         : AAC
Format/Info                    : Advanced Audio Codec
Format version                 : Version 2
Format profile                 : LC
Muxing mode                    : ADTS
Codec ID                       : 15
Duration                       : 6 min 51 s
Bit rate mode                  : Variable
Channel(s)                     : 2 channels
Channel positions              : Front: L R
Sampling rate                  : 48.0 kHz
Frame rate                     : 46.875 FPS (1024 SPF)
Compression mode               : Lossy








descargar peliculas - descargar programas
82 Puntos Score: 8.2/10
Visitas: 721 Favoritos: 4
Ver los usuarios que votaron...
7 Comentarios Cow and Chicken T1 [Tv-rip Tooncast-CN]
Excelente bro, nada mas en que servidor esta. Por favor espero que no sea de Mega jajajaja
Cita chivas93: Mostrar
Sip. Esta en mega.
Muchas Gracias !!  
Cita Guppy_mx: Mostrar
De nada...
Excelente aporte!!!... Muchas gracias por compartir...  
No se porque pero esta serie la odiaba  
Cita luchito_33: Mostrar
jajajja vale, pero es para coleccionar xD a mi me daba cosa ver al tipo del trasero rojo xD
Para dejar un comentario Registrate! o.. eres ya usuario? Accede!
Facebook Identi