educap
"El que ríe último ríe tarde y poco"

Superstar-1999-DVDrip-Mega-Único








Título original
Superstar

Año
1999

Duración
81 min.

País
Estados Unidos Estados Unidos

Dirección
Bruce McCulloch

Guion
Steven Wayne Koren, Molly Shannon

Música
Michael Gore

Fotografía
Walt Lloyd

Reparto
Molly Shannon,  Will Ferrell,  Elaine Hendrix,  Glynis Johns,  Harland Williams, Mark McKinney

Productora
SNL Studios / Paramount Pictures

Género
Comedia | Colegios & Universidad

Grupos
Saturday Night Live (Películas) Novedad

Sinopsis
Todo lo que la adolescente Mary Katherine Gallagher desea de la vida es un beso. Pero no un beso cualquiera, sino el beso que hace que uno se desmaye. Pero ella se da cuenta que, por mucho que se esmere, nadie la va a besar. Y llega a la conclusión de que la única manera para conseguir su deseo es convertirse en una estrella del cine... Comedia protagonizada por dos conocidos miembros del programa Saturday Night Live. (FILMAFFINITY)



Hace rato busco esta peli, no está en latino.
A nadie le importa, pero bueno...

Servidor Mega

Upload educap
Peso 700 MB


General                               Superstar-1999.avi
Format                      : AVI
Format/Info                 : Audio Video Interleave
File size                   : 700 MiB
Duration                    : 1h 21mn
Overall bit rate            : 1 197 Kbps
Writing application         : VirtualDubMod 1.5.4.1 (build 2178/release)
Writing library             : VirtualDubMod build 2178/release

Video
ID                          : 0
Format                      : MPEG-4 Visual
Format profile              : Advanced [email protected]
Format settings, BVOP       : 1
Format settings, QPel       : No
Format settings, GMC        : No warppoints
Format settings, Matrix     : Custom
Codec ID                    : XVID
Codec ID/Hint               : XviD
Duration                    : 1h 21mn
Bit rate                    : 1 030 Kbps
Width                       : 608 pixels
Height                      : 352 pixels
Display aspect ratio        : 1.727
Frame rate                  : 23.976 (23976/1000) fps
Color space                 : YUV
Chroma subsampling          : 4:2:0
Bit depth                   : 8 bits
Scan type                   : Progressive
Compression mode            : Lossy
Bits/(Pixel*Frame)          : 0.201
Stream size                 : 602 MiB (86%)
Writing library             : XviD 1.2.1 (UTC 2008-12-04)

Audio
ID                          : 1
Format                      : MPEG Audio
Format version              : Version 1
Format profile              : Layer 3
Mode                        : Joint stereo
Mode extension              : MS Stereo
Codec ID                    : 55
Codec ID/Hint               : MP3
Duration                    : 1h 21mn
Bit rate mode               : Constant
Bit rate                    : 160 Kbps
Channel(s)                  : 2 channels
Sampling rate               : 48.0 KHz
Compression mode            : Lossy
Stream size                 : 93.6 MiB (13%)
Alignment                   : Aligned on interleaves
Interleave, duration        : 83 ms (2.00 video frames)
Interleave, preload duratio : 504 ms
Writing library             : LAME3.97
Encoding settings           : -m j -V 4 -q 2 -lowpass 17.5 -b 160
Language                    : English
















No tiene
descargar peliculas - descargar programas
24 Puntos Score: 4.8/10
Visitas: 982 Favoritos: 0
Ver los usuarios que votaron...
3 Comentarios Superstar-1999-DVDrip-Mega-Único
Muy divertida.Gracias
@epalada @jerrylook gracias, que ningún post se muera sin ningún comentario pls  
Para dejar un comentario Registrate! o.. eres ya usuario? Accede!
Facebook Identi