Zoey 101 S04 [HDTV|720P/1080P]

ZOEY 101
TEMPORADA 4 







Video

Format: AVC
Format/Info: Advanced Video Codec
Format profile: [email protected]
Format settings, CABAC: Yes
Format settings, ReFrames: 8 frames
Codec ID: V_MPEG4/ISO/AVC
Width: 1280 pixels
Height: 720 pixels
Display aspect ratio: 16:9
Frame rate mode: Constant
Frame rate: 25.000 fps
Color space: YUV
Chroma subsampling: 4:2:0
Bit depth: 8 bits
Scan type: Progressive
Writing library: x264 
Language: German
Default: Yes
Forced: No

Audio #1
ID: 2
Format: AC-3
Format/Info: Audio Coding 3
Mode extension: CM (complete main)
Format settings, Endiannese: Big
Codec ID: A_AC3
Duration: 22mn 2s
Bit rate mode: Constant
Bit rate: 640 Kbps
Channel(s): 2 channels
Channel positions: Front: L R
Sampling rate: 48.0 KHz
Compression mode: Lossy
Stream size: 101 MiB (13%)
Title: Spanish
Language: Spanish
Default: No
Forced: No

Audio #2
ID: 3
Format: AC-3
Format/Info: Audio Coding 3
Mode extension: CM (complete main)
Format settings, Endianness : Big
Codec ID: A_AC3
Duration: 22mn 2s
Bit rate mode: Constant
Bit rate: 192 Kbps
Channel(s): 2 channels
Channel positions: Front: L R
Sampling rate: 48.0 KHz
Compression mode: Lossy
Stream size: 30.3 MiB (4%)
Language: English
Default: No
Forced: No

Audio #3
ID: 4
Format: AAC
Format/Info: Advanced Audio Codec
Format profile: LC
Codec ID: A_AAC
Duration: 22mn 2s
Channel(s): 2 channels
Channel positions: Front: L R
Sampling rate: 48.0 KHz
Compression mode: Lossy
Title: iTunesMaxHD
Language: Portuguese
Default: Yes
Forced: Yes

Menu
00:00:00.000: :Opening
00:00:57.400: :Main


(720P)








(1080P)
[Unicamente 3 capitulos 04/06/08]

Video
ID: 1
Format : AVC
Format/Info: Advanced Video Codec
Format profile: [email protected]
Codec ID: V_MPEG4/ISO/AVC
Duration: 23mn 37s
Bit rate: 5 224 Kbps
Width: 1 920 pixels
Height: 1 080 pixels
Display aspect ratio: 16:9
Frame rate mode: Constant
Frame rate: 23.976 fps
Color space: YUV
Chroma subsampling: 4:2:0
Bit depth: 8 bits
Stream size: 882 MiB (83%)
Title: English
Language: English
Default: Yes
Forced: No


Audio #1
ID: 2
Format: AC-3
Format/Info: Audio Coding 3
Mode extension : CM (complete main)
Format settings, Endianness : Big
Codec ID: A_AC3
Duration: 23mn 37s
Bit rate mode: Constant
Bit rate: 640 Kbps
Channel(s): 2 channels
Channel positions: Front: L R
Sampling rate: 44.1 KHz
Compression mode: Lossy
Delay relative to video: -64ms
Stream size: 108 MiB (10%)
Title: Spanish
Language: Spanish
Default: No
Forced: No


Audio #2
ID: 3
Format: MPEG Audio
Format version: Version 1
Format profile: Layer 3
Codec ID: A_MPEG/L3
Codec ID/Hint: MP3
Duration: 23mn 37s
Bit rate mode: Constant
Bit rate: 192 Kbps
Channel(s): 2 channels
Sampling rate: 44.1 KHz
Compression mode: Lossy
Delay relative to video: -41ms
Stream size: 32.4 MiB (3%)
Title: German
Writing library: LAME3.99.5
Language: German
Default: Yes
Forced: No

Audio #3
ID: 4
Format: MPEG Audio
Format version: Version 1
Format profile: Layer 3
Mode: Joint stereo
Mode extension : MS Stereo
Codec ID: A_MPEG/L3
Codec ID/Hint: MP3
Duration: 23mn 37s
Bit rate mode: Constant
Bit rate: 128 Kbps
Channel(s): 2 channels
Sampling rate: 48.0 KHz
Compression mode: Lossy
Delay relative to video: -64ms
Stream size: 21.6 MiB (2%)
Title: English
Writing library: LAME3.99.5
Language: English
Default: No
Forced: No










LISTA DE EPISODIOS
01-Intercambio de sitios
02-Falso compañero de cuarto
03-Solos en la academia
04-Rumor de romance[1080p]
05-Control de la ira
06-Quinn extraña a Mark[1080p]
07-Camina-Ton
08-Vince ha Vuelto[1080p]
09-Cena para demasiados
10-Prohibido el carrito de cafe
11-Montaña Rusa
12-Persiguiendo a Zoey 
13-Persiguiendo a Zoey

PESO TOTAL:11,2GB




descargar peliculas - descargar programas
99 Puntos Score: 8.3/10
Visitas: 871 Favoritos: 6
Ver los usuarios que votaron...
7 Comentarios Zoey 101 S04 [HDTV|720P/1080P]
Excelente aporte, subiras las otras temporadas en la misma calidad?- Te dejo puntos.
@HaCkr gracias
hay un upscale muy bueno circulando(le falta un poca mas de color) lo estoy sincronizando
asi que faltaria la 3ra temporada
Buen aporte colega saludos
PD: Si posteas la pelí de nacer para morir estaría estupendo gracias!
@Duliori_28 dale la subo a zippy va a tardar esta bastante pesadita
pero vale la pena
@seiyachan Sin prisas bro cuando tu puedas, abrazo
la serie acabo cuando la hermanita de britney salio embarazada alos 16
Muchas gracias por este gran aporte amigo
Para dejar un comentario Registrate! o.. eres ya usuario? Accede!
Facebook Identi