Hect65
"Nos Vemos!!!"

''Rory O'Shea Was Here''(2004) 720p Dual By Hect65

Pedido : ''Rory O'Shea Was Here''(2004) 720p

Dual (Latino - Inglés) By Hect65


















Antes que nada,buen comienzo de año,saludos!!!,por problemas de salud,no estuve disponible en compartirles algo en estas pasadas festividades.




Bueno,ahí voy!!!...




Que tal,....pues si,yo,aquí de nuevo,fregando las ilusiones de los que no querían volverme a ver por estos lares.




[Aporte hecho por Hect65,luego los demás se

alzaran el cuello por la red de haber sido primero

ellos




Agradezco también a quién haya capturado el audio, y

por supuesto al que me paso el audio latino.

 





Siiiiiiiiiiiiiiiiií, por fin,ya conseguí el audio latino de este aporte,nada fácil de obtener, tuve que intercambiarlo por otro que tengo,tengo varios,pero esos,
no tengo previsto compartirlos.



Amigo @Alanjav,pues ya esta aquí,allí tienes  tu pedido desde hace más de un año :







Ahí se me paso parte del avatar de Myterioso,pero

no hay problema,saludos amigo!!!!


Bueno ya pasemos a la ''Info'',disculpen,pero ya saben,

así soy, y que!!! Soy el Hect65 y si a alguien tiene algún problema,que me lo diga de frente,
como los machos.

Es broma,no sean del ''Ego''alto, les puede causar problemas.








Info :


Video



ID                          : 1
Format                      : AVC
Format/Info                 : Advanced Video Codec
Format profile              : [email protected]
Format settings, CABAC      : No
Format settings, ReFrames   : 2 frames
Codec ID                    : V_MPEG4/ISO/AVC
Duration                    : 1h 44mn
Bit rate                    : 3 914 Kbps
Width                       : 1 280 pixels
Height                      : 544 pixels
Display aspect ratio        : 2.35:1
Frame rate mode             : Constant
Frame rate                  : 23.976 fps
Color space                 : YUV
Chroma subsampling          : 4:2:0
Bit depth                   : 8 bits
Scan type                   : Progressive
Bits/(Pixel*Frame)          : 0.234
Stream size                 : 2.84 GiB (85%)
Title                       : Rory O'Shea Was Here (2004)
Language                    : English
Default                     : Yes
Forced                      : No
Color range                 : Limited
Color primaries             : BT.709
Transfer characteristics    : BT.709
Matrix coefficients         : BT.709



Audio #1
ID                          : 2
Format                      : AC-3
Format/Info                 : Audio Coding 3
Mode extension              : CM (complete main)
Format settings, Endianness : Big
Codec ID                    : A_AC3
Duration                    : 1h 44mn
Bit rate mode               : Constant
Bit rate                    : 192 Kbps
Channel(s)                  : 2 channels
Channel positions           : Front: L R
Sampling rate               : 48.0 KHz
Compression mode            : Lossy
Stream size                 : 143 MiB (4%)
Title                       : Audio : Latino
Language                    : Latin
Default                     : Yes
Forced                      : No



Audio #2


ID                          : 3

Format                      : AC-3
Format/Info                 : Audio Coding 3
Mode extension              : CM (complete main)
Format settings, Endianness : Big
Codec ID                    : A_AC3
Duration                    : 1h 44mn
Bit rate mode               : Constant
Bit rate                    : 384 Kbps
Channel(s)                  : 6 channels
Channel positions           : Front: L C R, Side: L R, LFE
Sampling rate               : 48.0 KHz
Compression mode            : Lossy
Stream size                 : 286 MiB (8%)
Title                       : Audio : Inglés ''Dolby Digital AC3 5.1''
Language                    : English
Default                     : No
Forced                      : No



Text
ID                          : 4
Format                      : UTF-8
Codec ID                    : S_TEXT/UTF8
Codec ID/Info               : UTF-8 Plain Text
Title                       : Subt. IngléS
Language                    : English
Default                     : No
Forced                      : No



Menu

00:00:00.000                : en:1
00:03:06.000                : en:2
00:07:23.000                : en:3
00:14:20.000                : en:4
00:17:56.000                : en:5
00:23:31.000                : en:6
00:29:18.000                : en:7
00:32:15.000                : en:8
00:36:39.000                : en:9
00:42:50.000                : en:10
00:45:41.000                : en:11
00:52:22.000                : en:12
00:56:34.000                : en:13
01:03:44.000                : en:14
01:10:59.000                : en:15
01:18:27.000                : en:16
01:25:02.000                : en:17
01:32:36.000                : en:18
01:36:15.000                : en:19
01:40:25.000                : en:20







Info. filmaffinity
































No Pass

























IDENTI.LI



@Hect65

''No hay Otro''












LM Prototype
descargar peliculas - descargar programas
135 Puntos Score: 7.9/10
Visitas: 1496 Favoritos: 3
Ver los usuarios que votaron...
28 Comentarios ''Rory O'Shea Was Here''(2004) 720p Dual By Hect65
Amigo @Alanjav ahí tienes,saludos,grandes!!!  
SUPER GRACIAS AMIGO
gracias amigo por el aporte, como siempre un impecable trabajo, saludos  
Un saludaso de chile amigo y aguante el gas...
@dark72 Un abrazo amigo,gracias por los buenos deseos, saludos!!!  
y que tal esta esta pelicula?????????
Hola excelente aporte amigo tendrás la peli de la señora soffel ( 1984) en audio latino??
Muy agradecido por tu esfuerzo, compañero. Saludos.
Andas medio respingón amigazo quien te hizo enojar xDD (ya sé que es todo con broma pero si hay alguien tú nomás di y se la parti.... ) ...bienvenido estimado gracias por la compartida saludazos bien cordiales
Empezando el Año con noticias tuyas, que bueno verte. Si Alguien osa colmarte ya somos dos me apunto para la lucha . Luego de Dejo Puntos porque como dices los audios a veces lo tienen y no gustan de compartir, gracias por complacer con esas peticiones que en ocaciones es dificil. Saludos compañero
Muchas gracias por todo el esfuerzo a vos y a los que te ayudaron.  
@tombom8990 Disculpa amigo,estuve ocupado y bueno,pues una vez la ví,hace 14 años,y parece divertida.  
@Duliori_28 @Misteryoso En ese caso solo sería yo,de vez en cuando hay cosas que no valen la pena hacer caso,estoy más que nada,un poco estresado por lo del desabasto de gasolina en México,entra  el AMLO y ya la esta... pegelagarteando  .luego te topas con gente que de plano, ni comentarios. Pero ya es fin de semana y mañana comparto otras pelis que tengo por hay,a descansar y   abrazos!!!  
@MayPay35 Muchas gracias amigo,gracias por la visita,saludos!!!  




@Fortinero1 @Fortinero1 @Fortinero1
@Fortinero1  ahora si se me paso,ya te mencione varias veces  ,el teclado a veces te hace la vida de cuadros,en twtter ya me a pasado varias veces  
Muchas gracias a vos también por la visita y si también a los que colaboraron con el audio latino,un abrazo y buen fin de semana,saludos grandes viva Argentina!!!

@bonanott  No amigo,esa no la tengo,si se algo te aviso,saludos!
Tremendo aporte cumpa, saludos y que estés bien  
@diegonki  Cumpa,como está? aquí de nuevo,viendo lo que deje hace unos meses,gracias por la visita,buen fin de semana y nos vemos pronto  
Muchas gracias por el aporte
Qué triste me puso esta película cuando la vi hace años por el cable.  
Puuchaaa que grande eres amigooo!!! esta película es una de mis favoritas, sobre el gènero de discapacidad... muchas gracias , la vi hace tiempo en cinecanal o creo que fue golden, es una excelente película, de ahi copiaron la de
Gracias totales amigoo, ya mismo estoy descargando, gracias por enviar el mp, porque si no no me hubiera dado cuenta ya que en las notificaciones te meten la de post creados y se pierde ahi todo... bueno graciassss estoy bajandolaaaaa es un TESORO ESTA PELII  
parece buena,gracias mil
Amigazo no puedo creer lo que ven mis ojotes...
Iniciando el año con otro post y ahora super recargado de energía, pásame una poca, no?
Me alegra leer que andes bien y por supuesto +10.

 
porfavor Jason y los Argonautas (2000)  
@n.adler Gracias por pasar amigo,si es dramatica esta pelí,saludos!!!  
@Alanjav Con gusto amigo,al fin cumplí,un abrazo!!!  
@Guzanero Después te digo amigo,después de la las epidemias, ,lo bueno es que ya paso,y a darle,un abrazo!!!  
@cesarbbcc Mi estimado un abrazo!!!
@kinjo  
@samirios Vemos!!!  
@GeorgeDiaz ahorita pongo un post y luego me dices,gracias por pasar!!!  
@Hect65 amigo me pasás el link directo por privado porque no puedo bajarla por favor muchas gracias
Al final de la peli... lloré como un bebé  
@Alanjav Muy triste amigo,vaya que si... es buena trama,pero la vida sigue    

@bonanott No vi tu comentario,con tanta notificación,ni me di cuenta.disculpa,pero no te creo que no te tome los links  .
Para dejar un comentario Registrate! o.. eres ya usuario? Accede!
Facebook Identi