merlin 1998 latino

Título El mago Merlín (Hispanoamérica)

Protagonistas Sam Neill
Miranda Richardson
Helena Bonham Carter
Isabella Rossellini
John Gielgud
Rutger Hauer
Martin Short
Lena Headey

País Estados Unidos
Reino Unido
Año 1998
Género Fantasía medieval
Aventura
Duración 185 min.
Idioma(s) inglés y latino

Merlin, conocida en español como El mago Merlín o Merlín, es el nombre de una miniserie de 1998 de televisión que trata sobre la vida del mago Merlín, la pelea contra la reina Mab y la leyenda del rey Arturo. Consta de dos episodios con una duración total de 182 minutos
  
ancho de fotograma: 640
alto de fotograma : 480
audio : latino-ingles
subtitulo-español
la pelicula se divide en dos partes el peso de cada archivo es de : 1.63 GB
estuve buscando en internet y es la unica version que encontre y lo mejor que esta en latino espero que sea  de su agrado

Format                         : Matroska

File size                      : 1.63 GiB
Duration                       : 1 h 29 min

Video
ID                             : 1
Format                         : MPEG-4 Visual
Format settings                : BVOP
Format settings, BVOP          : Yes
Format settings, QPel          : No
Format settings, GMC           : No warppoints
Format settings, Matrix        : Default (H.263)
Codec ID                       : V_MS/VFW/FOURCC / DX50
Codec ID/Hint                  : DivX 5
Duration                       : 1 h 29 min
Bit rate                       : 955 kb/s
Nominal bit rate               : 4 854 kb/s
Width                          : 640 pixels
Height                         : 480 pixels
Display aspect ratio           : 4:3
Frame rate mode                : Constant
Frame rate                     : 23.976 (24000/1001) FPS
Color space                    : YUV
Chroma subsampling             : 4:2:0
Bit depth                      : 8 bits
Scan type                      : Progressive
Compression mode               : Lossy
Bits/(Pixel*Frame)             : 0.130
Stream size                    : 609 MiB (36%)
Writing library                : DivX 6.8.0 (UTC 2007-12-04)
Default                        : Yes
Forced                         : No

Audio #1
ID                             : 2
Format                         : PCM
Format settings                : Little / Signed
Codec ID                       : A_PCM/INT/LIT
Duration                       : 1 h 29 min
Bit rate mode                  : Constant
Bit rate                       : 1 536 kb/s
Channel(s)                     : 2 channels
Sampling rate                  : 48.0 kHz
Frame rate                     : 32.000 FPS (1500 SPF)
Bit depth                      : 16 bits
Delay relative to video        : 1 s 119 ms
Stream size                    : 979 MiB (59%)
Title                          : latino
Default                        : Yes
Forced                         : No

Audio #2
ID                             : 3
Format                         : MPEG Audio
Format version                 : Version 1
Format profile                 : Layer 3
Format settings                : Joint stereo / MS Stereo
Codec ID                       : A_MPEG/L3
Codec ID/Hint                  : MP3
Duration                       : 1 h 29 min
Bit rate mode                  : Constant
Bit rate                       : 128 kb/s
Channel(s)                     : 2 channels
Sampling rate                  : 48.0 kHz
Frame rate                     : 41.667 FPS (1152 SPF)
Compression mode               : Lossy
Stream size                    : 81.6 MiB (5%)
Title                          : ingles
Writing library                : LAME3.97
Default                        : No
Forced                         : No




sin contraseña 


descargar peliculas - descargar programas
279 Puntos Score: 7.3/10
Visitas: 3220 Favoritos: 11
Ver los usuarios que votaron...
32 Comentarios merlin 1998 latino
Por favor, agregar Formato de Vídeo, Códecs de Audio y Video y alguna Captura. Gracias.
Me encantan esta clase de peliculas (o series). Gracias, veremos como es!
Cita mariano125: Mostrar
Cita LASZChile2: Mostrar
Excelente aporte amigo descargando y a la colección
Muchas gracias  
Cita perea19: Mostrar
Cita kronoscr: Mostrar
linda peli,gracias miles
No puedo creerlo, esta serie es inconseguible en latino. Muchas gracias. Este tipo de aportes son los que valen la pena. Y con lo que me encanta la leyenda artúrica. Si tienes las nieblas de Avalon en latino serías un dios, nadie la tiene

De hecho hay varias miniseries o películas históricas como esta que sí se doblaron al latino pero no se consiguen. Gracias, +10
Gracias, se ve interesante  
Esta peli es buenisima, +5
Muchas gracias, mis +5 del día son para vos.
Enorme aporte, mil gracias.
Dual?...genial... solo la vi de chico en ingles y en formato serie... muchas gracias y +10 porel aporte
Excelente aporte gracias
Muchas gracias amigo. Excelente aporte  
@omigar ..excelente aporte …!! gracias por compartir...
una de mis peliculas favoritas de todos los tiempos, recuerdo que hace dos años la busque y la logre encontrar ...asi tb dividida en 2 partes, en latino..esta misma calidad...si bien ya la tengo te dejo +10  
@GeorgeDiaz buscare la tuya, siempre tengo la esperanza de encontrar cosas imposibles.
exelente aporte. pero agrego los enlaces en mypony, comienza un conteo de 60 segundos y me mara error de descarga. Saludos.
Cita ELDAF: Mostrar
amigo intenta descargar con megadownloader ya lo puse y si se descarga
Para dejar un comentario Registrate! o.. eres ya usuario? Accede!
Facebook Identi