Hect65
"Pronto les traeré nuevos aportes,eso espero, saludos!!!"

''El Poder del Dinero''(1991)1080p Trial By Hect65

''El Poder del Dinero''


ó

''Con el dinero de los demás''




(1991) 1080p MG Trial Audio







Audios :


''Latino Original'' Por : Charizard



''Redoblaje'' Por : @ecastillol




Auditoria : @Hect65




















Titulo Original :




''Other People's Money'' (1991) 1080p Trial Audio





Info :



Video






ID                          : 1
Format                      : AVC
Format/Info                 : Advanced Video Codec
Format                      : Matroska
Format version              : Version 4 / Version 2
File size                   : 3.41 GiB
Duration                    : 1 h 40 min
Overall bit rate            : 4 834 kb/s
Movie name                  : Other People´s Money (1991) 1080p Trial Audio
Attachments                 : Cover.jpg
Codec ID                    : V_MPEG4/ISO/AVC
Duration                    : 1 h 40 min
Width                       : 1 920 pixels
Height                      : 1 080 pixels
Display aspect ratio        : 16:9
Frame rate mode             : Constant
Frame rate                  : 23.976 (24000/1001) FPS
Bit depth                   : 8 bits


Audio #1
ID                          : 2
Format                      : AC-3
Format/Info                 : Audio Coding 3
Mode extension              : CM (complete main)
Format settings, Endianness : Big
Codec ID                    : A_AC3
Duration                    : 1 h 40 min
Bit rate mode               : Constant
Bit rate                    : 192 kb/s
Channel(s)                  : 2 channels
Channel positions           : Front: L R
Sampling rate               : 48.0 kHz
Frame rate                  : 31.250 FPS (1536 spf)
Bit depth                   : 16 bits
Compression mode            : Lossy
Stream size                 : 139 MiB (4%)
Title                       : Audio : Latino ''Original'' -  ''México''
Language                    : Latin
Default                     : Yes
Forced                      : No





Audio #2
ID                          : 3
Format                      : AC-3
Format/Info                 : Audio Coding 3
Mode extension              : CM (complete main)
Format settings, Endianness : Big
Codec ID                    : A_AC3
Duration                    : 1 h 40 min
Bit rate mode               : Constant
Bit rate                    : 192 kb/s
Channel(s)                  : 2 channels
Channel positions           : Front: L R
Sampling rate               : 48.0 kHz
Frame rate                  : 31.250 FPS (1536 spf)
Bit depth                   : 16 bits
Compression mode            : Lossy
Stream size                 : 138 MiB (4%)
Title                       : Audio : Latino ''Redoblaje'' - ''México''
Language                    : Latin
Default                     : No
Forced                      : No





Audio #3
ID                          : 4
Format                      : AAC
Format/Info                 : Advanced Audio Codec
Format profile              : LC
Codec ID                    : A_AAC
Duration                    : 1 h 40 min
Bit rate                    : 128 kb/s
Channel(s)                  : 2 channels
Channel positions           : Front: L R
Sampling rate               : 48.0 kHz
Frame rate                  : 46.875 FPS (1024 spf)
Compression mode            : Lossy
Stream size                 : 92.3 MiB (3%)
Title                       : Audio : Inglés
Language                    : English
Default                     : No
Forced                      : No





Text
ID                          : 5
Format                      : UTF-8
Codec ID                    : S_TEXT/UTF8
Codec ID/Info               : UTF-8 Plain Text
Duration                    : 1 h 38 min
Bit rate                    : 66 b/s
Count of elements           : 1850
Stream size                 : 48.0 KiB (0%)
Title                       : Subt. Inglés
Language                    : English
Default                     : No
Forced                      : No









Info. filmaffinity
























































Ustedes ya saben,... no hay!!!












IDENTI.LI





Espero volver pronto,eso si no me están molestando

con el cambio de password!!!











@Hect65
descargar peliculas - descargar programas
207 Puntos Score: 8.6/10
Visitas: 1863 Favoritos: 3
Ver los usuarios que votaron...
28 Comentarios ''El Poder del Dinero''(1991)1080p Trial By Hect65
Posteo este aporte para seguir aportando en esta gran comunidad,y no responderé en sumomento por que voy a estar muy ocupado todo el día.

De antemano les agradezco sus humildes comentarios, saludos y bendiciones!!!

                                                      @Hect65  
gracias bro  
Excelente amigo, gracias por el aporte, lo malo es que el JDownloader no me agrega el link  
Un saludo mi estimado amigo, me alegra mucho que estes de nuevo por estos lares, compartiendo tus excelentes aportes, un fuerte abrazo amigazo  
maximo compañero lo tenia solo con un audio
Gran pelicula, de las ultimas de Gregory Peck - Danny DeVito !Genial!
Hect65 sigue asi con los aportes extraordinarios!!   van mis 5
Ufff genial ahora falta la de gemelos con arnold y la de Junior  
Gracias por el aporte, me la llevo.
Recomendada, muchas gracias por aportarla Máster, luego me doy una vuelta, suerte..    
Me gusto mucho  gracias  
Muchas gracias por el Avant Premier.
Gracias mi estimado me la llevo saludazos
Gracias por el clásico  
Muchas gracias, parece interesante.
Super espectacular!!!
Otra vez dando muestras de tu estupenda calidad, sos el sensei... +10
Gracias!!
 
Gracias por la película, dejo mi comentario hasta hoy ya que se desloguea a cada rato mi cuenta, en fin espero se solucione esto rápido  
@gihuyuz @Dragonrage @alehot80s @ecacek @EdgarOB  Muchas gracias amigos,que disfruten del aporte!!!  

@cesarbbcc  Mi gran amigo,que gusto volverte a ver   ,si,no eh podido publicar cosas en la web por problemas con mi pc y cuestión de tiempo  ,pero primero ''Dios '' saldremos adelante.

Mi más sincero saludo y un gran abrazo desde la distancia para ti mi gran amigo @cesarbbcc ,que estés muy bien tu y con los tuyos, muchas bendiciones  
@lefarocu Que tal amigo,una disculpa por no poder cumplir con tus pedidos de sincro,sin tiempo de nada y con el deterioro de mi pc,pues es muy difícil decir ''no puedo'',pero primero ''El poder del señor'' nos dará siempre la salida a nuestros problemas,un abrazo y espero poder seguir en comunicación,aunque sea como amigo!!!  

@epalada  Muchas gracias amigo!!!   , @dansar2007 Muchas gracias por el tu gran gesto amigo,bendicines para ti y para ''Argentina'' mis más sinceros deseos y muchos éxitos por venir!!!  

@PsyZkf   @555. Muchas gracias amigo,un gran saludos y bendiciones para tí ''Master''  

@JaleXNet   @Duliori_28  Un abrazo mi amigo,buen finde '' ya voy a menear ''La melenuda'' con tu gran des tracks que nos haz compartido  y con los aporte de nuestro gran hermano @555. ,pues se nos va ir la noche meneando la ... ,saludos mis amigos!!!  

@Fortinero1 Muchas gracas vos,un gusto compartir  

@diegonki   ,abrazo mi amigo,bendiciones y pues ya sabes, aguí estamos, luego te caigo con otro ''albur'' espero no se lo tomen los demás a pecho!!!
@Guzanero  Mi gran ''Hermanazo'' desde la distancia mi gran amigazo,te mando muchos saludos cordials y abrazos bien fuertes   , que bueno que sigas prosperando en tu vida mi amigo,si te va bien,a mi  también,bueno,bueno,es un decir.

La verdad,que ya se nos va el año muy rápido y hay que disfrutar de cada momento,y muchos, me haz enseñado a ser mejor en esta vida mi querido amigo... bendiciones y estamos en constante comunicación.  
Gracias por la pelicula, no la encontraba en ninguna pagina
@samuarg Un gusto amigo,saludos!!!  
@Misteryoso De nada mi amigo,muchas gracias también para vos por tu ayuda!!!  
@Alanjav por momentos mi amigo,tengo un pequeño problema con mi pc,ya no se escuchan los auriculares,por ahora no puedo sincronizar audios   ,pero,voy a ver que más tengo por ahí,para compartir,...mientras soluciono mi problemita, un abrazo!!!  
Para dejar un comentario Registrate! o.. eres ya usuario? Accede!
Facebook Identi