aaron.pasc
"El conocimiento es poder y la ignorancia una bendición."

Explained S1 E4-6/?|Netflix|Latino|720p|GD|2018




INFORMACIÓN:


Interesante documental donde tocarán diferentes temas por episodio y explica las principales características de cada uno.


PASSWORD:


RENOMBRAR ARCHIVO A ".RAR" y Extraer con versión 5+ de Winrar.



CAPÍTULO: ADN de diseñador




Ficha Técnica:

Video
ID                             : 1
Format                         : AVC
Format/Info                    : Advanced Video Codec
Format profile                 : [email protected]
Format settings                : CABAC / 1 Ref Frames
Format settings, CABAC         : Yes
Format settings, ReFrames      : 1 frame
Codec ID                       : avc1
Codec ID/Info                  : Advanced Video Coding
Duration                       : 17 min 5 s
Bit rate                       : 1 354 kb/s
Width                          : 1 280 pixels
Height                         : 720 pixels
Display aspect ratio           : 16:9
Frame rate mode                : Constant
Frame rate                     : 29.970 (30000/1001) FPS
Color space                    : YUV
Chroma subsampling             : 4:2:0
Bit depth                      : 8 bits
Scan type                      : Progressive
Bits/(Pixel*Frame)             : 0.049
Stream size                    : 166 MiB (93%)
Writing library                : x264 core 129


Audio
ID                             : 2
Format                         : AAC
Format/Info                    : Advanced Audio Codec
Format profile                 : LC
Codec ID                       : mp4a-40-2
Duration                       : 17 min 5 s
Duration_FirstFrame            : 64 ms
Bit rate mode                  : Variable
Bit rate                       : 92.8 kb/s
Maximum bit rate               : 192 kb/s
Channel(s)                     : 2 channels
Channel positions              : Front: L R
Sampling rate                  : 48.0 kHz
Frame rate                     : 46.875 FPS (1024 SPF)
Compression mode               : Lossy
Stream size                    : 11.3 MiB (6%)
Default                        : Yes
Alternate group                : 1

Descarga:










CAPÍTULO: La brecha de riqueza racial






Ficha Técnica:

Video
ID                             : 1
Format                         : AVC
Format/Info                    : Advanced Video Codec
Format profile                 : [email protected]
Format settings                : CABAC / 1 Ref Frames
Format settings, CABAC         : Yes
Format settings, ReFrames      : 1 frame
Codec ID                       : avc1
Codec ID/Info                  : Advanced Video Coding
Duration                       : 15 min 37 s
Bit rate                       : 1 354 kb/s
Width                          : 1 280 pixels
Height                         : 720 pixels
Display aspect ratio           : 16:9
Frame rate mode                : Constant
Frame rate                     : 29.970 (30000/1001) FPS
Color space                    : YUV
Chroma subsampling             : 4:2:0
Bit depth                      : 8 bits
Scan type                      : Progressive
Bits/(Pixel*Frame)             : 0.049
Stream size                    : 152 MiB (93%)
Writing library                : x264 core 129


Audio
ID                             : 2
Format                         : AAC
Format/Info                    : Advanced Audio Codec
Format profile                 : LC
Codec ID                       : mp4a-40-2
Duration                       : 15 min 37 s
Duration_FirstFrame            : 64 ms
Bit rate mode                  : Variable
Bit rate                       : 91.0 kb/s
Maximum bit rate               : 192 kb/s
Channel(s)                     : 2 channels
Channel positions              : Front: L R
Sampling rate                  : 48.0 kHz
Frame rate                     : 46.875 FPS (1024 SPF)
Compression mode               : Lossy
Stream size                    : 10.2 MiB (6%)
Default                        : Yes
Alternate group                : 1


Descarga:










CAPÍTULO: Por qué las dietas fracasan





Ficha Técnica:

Video

ID                             : 1
Format                         : AVC
Format/Info                    : Advanced Video Codec
Format profile                 : [email protected]
Format settings                : CABAC / 1 Ref Frames
Format settings, CABAC         : Yes
Format settings, ReFrames      : 1 frame
Codec ID                       : avc1
Codec ID/Info                  : Advanced Video Coding
Duration                       : 14 min 17 s
Bit rate                       : 1 109 kb/s
Width                          : 1 280 pixels
Height                         : 720 pixels
Display aspect ratio           : 16:9
Frame rate mode                : Constant
Frame rate                     : 29.970 (30000/1001) FPS
Color space                    : YUV
Chroma subsampling             : 4:2:0
Bit depth                      : 8 bits
Scan type                      : Progressive
Bits/(Pixel*Frame)             : 0.040
Stream size                    : 112 MiB (92%)
Writing library                : x264 core 129

Audio
ID                             : 2
Format                         : AAC
Format/Info                    : Advanced Audio Codec
Format profile                 : LC
Codec ID                       : mp4a-40-2
Duration                       : 14 min 17 s
Duration_FirstFrame            : 64 ms
Bit rate mode                  : Variable
Bit rate                       : 88.9 kb/s
Maximum bit rate               : 192 kb/s
Channel(s)                     : 2 channels
Channel positions              : Front: L R
Sampling rate                  : 48.0 kHz
Frame rate                     : 46.875 FPS (1024 SPF)
Compression mode               : Lossy
Stream size                    : 9.09 MiB (7%)
Default                        : Yes
Alternate group                : 1



Descarga:









descargar peliculas - descargar programas
46 Puntos Score: 9.2/10
Visitas: 634 Favoritos: 0
Ver los usuarios que votaron...
9 Comentarios Explained S1 E4-6/?|Netflix|Latino|720p|GD|2018
Por favor,  organiza la Ficha Técnica porque amontonada no se entiende nada. Gracias.
@LASZChile2 si, al ver como quedó antes de comentaras ya lo editaba para quitarlo. quería alguna manera de hacerlo pestaña para que quien lo quiere leer lo despliegue.
Muchas gracias  
Muchas gracias por los docus  

@LASZChile2 Cómo se agregan comentarios tipo "pestaña para que quien lo quiera leer lo despliegue" que en algunas webs llaman spoiler ?
Podrías usar "quote"  
@akula1997 De nada! Gracias a todos los demas que tambien comparten.  
@LASZChile2 gracias! lo intente usar, "quote" con los [][/] y no logre que se escondiera, lo hice mal?
Espero subas más.Van mis 5 ps. gracias
Gracias se ven muy bien los documentales.
@jerrylook Hoy se estreno el siguiente, lo subo para en la noche.  

@caronteo son precisos, pero da la información de la manera correct.
Para dejar un comentario Registrate! o.. eres ya usuario? Accede!
Facebook Identi