diegonki
"La Tungara"

Thor: Ragnarok 2017|1080p|Dual|Diegonki




Thor: Ragnarok 2017
































General

Complete name                  : Thor Ragnarok.1080p Diegonki.mkv
Format                         : Matroska
File size                      : 2.42 GiB
Duration                       : 2 h 10 min
Overall bit rate               : 2 656 kb/s

Video

Format                         : HEVC x265
Bit rate                       : 1 808 kb/s
Width                          : 1 920 pixels
Height                         : 808 pixels
Bit depth                      : 8 bits

Audio #1

Format                         : AAC
Bit rate                       : 206 kb/s
Channel(s)                     : 6 channels
Channel positions              : Front: 14, Side: C, Back: C, LFE= 2
Stream size                    : 192 MiB (8%)
Title                          : Ingles
Language                       : English


Audio #2

Format                         : AC-3
Bit rate                       : 640 kb/s
Channel(s)                     : 6 channels
Channel positions              : Front: L C R, Side: L R, LFE
Stream size                    : 597 MiB (24%)
Title                          : Latino 5.1
Language                       : Spanish


Text

Format                         : UTF-8
Codec ID                       : S_TEXT/UTF8
Title                          : Español
Language                       : Spanish



Pass: diegonki
Link
Google Drive

 







Recuerda comentar, ya que motiva a seguir aportando!!
descargar peliculas - descargar programas
210 Puntos Score: 8.8/10
Visitas: 2855 Favoritos: 5
Ver los usuarios que votaron...
18 Comentarios Thor: Ragnarok 2017|1080p|Dual|Diegonki
exelente peli amigo gracias  
Muchas Gracias!   +5
mis agradecimientos amigo, saludos  
gracias por el aporte muy buena calidad
graciiiassssssssssssss !  
Gracias +10  
Para dejar un comentario Registrate! o.. eres ya usuario? Accede!
Facebook Identi