Boemri
"Las pelis que quieras- Pide la que te gustaria ver"

La era del mañana|2014|1080p|Español|ZS|MG






Sinopsis


Cuando la Tierra es invadida por ovnis hostiles decididos a destruir el planeta, la humanidad entera se une y luchar para sobrevivir. Mientras se libra una épica batalla, unos astronautas logran introducirse a bordo de la nave madre de los invasores, donde descubren un portal al planeta de los extraterrestres y logran advertir a la Tierra antes de ser brutalmente asesinados. Sin otra alternativa, la Tierra envía un equipo militar especialistas en ciencia y combate a través del portal, para intentar detener la invasión desde dentro.  


Ficha Técnica



Mediainfo

General
Complete name               :l.a.e.r.a.d.e.l.m.a.ñ.a.n.a.hdrip.avi
Format                      : AVI
Format/Info                 : Audio Video Interleave
File size                   : 1.61 GiB
Duration                    : 1 h 30 min
Overall bit rate            : 2 553 kb/s
Writing application         : VirtualDubMod 1.5.10.2 (build 2540/release)
Writing library             : VirtualDubMod build 2540/release
IsTruncated                 : Yes

Video
ID                          : 0
Format                      : MPEG-4 Visual
Format profile              : Advanced [email protected]
Format settings, BVOP       : 2
Format settings, QPel       : No
Format settings, GMC        : No warppoints
Format settings, Matrix     : Default (H.263)
Codec ID                    : XVID
Codec ID/Hint               : XviD
Duration                    : 1 h 30 min
Bit rate                    : 2 095 kb/s
Width                       : 720 pixels
Height                      : 400 pixels
Display aspect ratio        : 16:9
Frame rate                  : 23.976 (24000/1001) FPS
Color space                 : YUV
Chroma subsampling          : 4:2:0
Bit depth                   : 8 bits
Scan type                   : Progressive
Compression mode            : Lossy
Bits/(Pixel*Frame)          : 0.303
Stream size                 : 1.32 GiB (82%)
Writing library             : XviD 67

Audio
ID                          : 1
Format                      : AC-3
Format/Info                 : Audio Coding 3
Format settings, Endianness : Big
Codec ID                    : 2000
Duration                    : 1 h 30 min
Bit rate mode               : Constant
Bit rate                    : 448 kb/s
Channel(s)                  : 2 channels
Channel positions           : Front: L R
Sampling rate               : 48.0 kHz
Frame rate                  : 31.250 FPS (1536 spf)
Bit depth                   : 16 bits
Compression mode            : Lossy
Stream size                 : 289 MiB (18%)
Alignment                   : Split accross interleaves
Interleave, duration        : 42  ms (1.00 video frame)
Interleave, preload duratio : 500  ms
Service kind                : Complete Main





















palalo


descargar peliculas - descargar programas
16 Puntos Score: 5.3/10
Visitas: 716 Favoritos: 0
Ver los usuarios que votaron...
7 Comentarios La era del mañana|2014|1080p|Español|ZS|MG
muchas gracias parece una buena peli bajando
Gracias por el aporte
@tonyro19 Gracias a ti Que la disfrutes  
Muchas gracias por el aporte    
Para dejar un comentario Registrate! o.. eres ya usuario? Accede!
Facebook Identi