Escándalo en la casa blanca 1997 dual 720p ligero

Escándalo en la casa blanca 1997 dual 720p ligero




913 MB LATINO/INGLÉS MAS SUBTITULOS NO PEGADOS.Título original: Wag the Dog
Año: 1997
Duración: 1:36:55.
País: Estados Unidos
Director: Barry Levinson
Guión: David Mamet, Hilary Henkin (Novela: Larry Beinhart)
Música: Mark Knopfler
Fotografía: Robert Richardson
Reparto
Dustin Hoffman, Robert De Niro, Anne Heche, Woody Harrelson, William H. Macy, Denis Leary, Willie Nelson, Andrea Martin, Kirsten Dunst
Productora_ New Line Cinema
Género: Comedia | Sátira. Política
Sinopsis
Tras ser pillado in fraganti en una situación escandalosa unos días antes de su reelección, el presidente de los Estados Unidos decide inventarse un conflicto que desvíe la atención de la prensa de su affaire. Uno de sus consejeros se pone en contacto con un productor de Hollywood para crear una cortina de humo: una guerra en Albania a la que el presidente pueda poner fin heroicamente ante las cámaras de televisión.

Complete name                            : F:a 720pWag The Dog .mkv
Format                                   : Matroska
Format version                           : Version 4 / Version 2
File size                                : 914 MiB
Duration                                 : 1h 36mn
Overall bit rate                         : 1 318 Kbps
Encoded date                             : UTC 2014-12-23 11:41:22
Writing application                      : mkvmerge v7.2.0 ('On Every Street') 64bit built on Sep 13 2014 15:52:10
Writing library                          : libebml v1.3.0 +
Video
ID                                       : 1
Format                                   : AVC
Format/Info                              : Advanced Video Codec
Format profile                           : [email protected]
Format settings, CABAC                   : Yes
Format settings, ReFrames                : 4 frames
Codec ID                                 : V_MPEG4/ISO/AVC
Duration                                 : 1h 36mn
Bit rate                                 : 1 000 Kbps
Width                                    : 1 280 pixels
Height                                   : 720 pixels
Display aspect ratio                     : 16:9
Frame rate mode                          : Constant
Frame rate                               : 23.976 fps
Color space                              : YUV
Chroma subsampling                       : 4:2:0
Bit depth                                : 8 bits
Scan type                                : Progressive
Bits/(Pixel*Frame)                       : 0.045
Stream size                              : 674 MiB (74%)
Writing library                          : x264 core 130 r2273
Audio #1
ID                                       : 2
Format                                   : AC-3
Format/Info                              : Audio Coding 3
Mode extension                           : CM (complete main)
Format settings, Endianness              : Big
Codec ID                                 : A_AC3
Duration                                 : 1h 36mn
Bit rate mode                            : Constant
Bit rate                                 : 192 Kbps
Channel(s)                               : 2 channels
Channel positions                        : Front: L R
Sampling rate                            : 48.0 KHz
Bit depth                                : 16 bits
Compression mode                         : Lossy
Delay relative to video                  : 14ms
Stream size                              : 133 MiB (15%)
Default                                  : No
Forced                                   : No

Audio #2
ID                                       : 3
Format                                   : AC-3
Format/Info                              : Audio Coding 3
Format profile                           : Dolby Digital
Mode extension                           : CM (complete main)
Format settings, Endianness              : Big
Codec ID                                 : A_AC3
Duration                                 : 1h 36mn
Bit rate mode                            : Constant
Bit rate                                 : 128 Kbps
Channel(s)                               : 2 channels
Channel positions                        : Front: L R
Sampling rate                            : 48.0 KHz
Bit depth                                : 16 bits
Compression mode                         : Lossy
Stream size                              : 88.7 MiB (10%)
Language                                 : English
Default                                  : Yes
Forced                                   : No

Text #1
ID                                       : 4
Format                                   : UTF-8
Codec ID                                 : S_TEXT/UTF8
Codec ID/Info                            : UTF-8 Plain Text
Title                                    : Forzados ESP
Language                                 : Spanish
Default                                  : Yes
Forced                                   : No

Text #2
ID                                       : 5
Format                                   : UTF-8
Codec ID                                 : S_TEXT/UTF8
Codec ID/Info                            : UTF-8 Plain Text
Title                                    : Sub ESP
Language                                 : Spanish
Default                                  : No
Forced                                   : No

Text #3
ID                                       : 6
Format                                   : UTF-8
Codec ID                                 : S_TEXT/UTF8
Codec ID/Info                            : UTF-8 Plain Text
Title                                    : Sub INGLES
Language                                 : English
Default                                  : No
Forced                                   : No






raulitto





raulitto

                                             SOLIDFILES UPTOBOX
https://www.solidfiles.com/v/6PKGKvaBenY7G
                                          
Ahí están las caracteristicas y especificaciones de la pelicula, al que le guste o le sirva así que la baje, al que no pues que la busque en otro lado o la postee, luego hasta me quieren regañar, ¡JA!

EXTRAER CON 7ZIP O CAMBIAR LA EXTENSIÓN DE LOS ARCHIVOS A .rar

Saludos desde México.
descargar peliculas - descargar programas
110 Puntos Score: 9.2/10
Visitas: 4677 Favoritos: 2
Ver los usuarios que votaron...
29 Comentarios Escándalo en la casa blanca 1997 dual 720p ligero
waooooooooo aver dame un chance..!! graciassss  
mil gracias un clasico +10 merecidos como siempre  
Muchas gracias por este aporte  , + 10. ?
Eres un crack @raulitto , esta peli nunca hubiera pensado en encontrarla en latino  
Desde ya una Feliz Navidad a ti y a tu familia, que la pasen muy bonito  

(no me he olvidado de Bugsy, lo que pasa que ahora ando corriendo con los ajetreos de Navidad   )
CONQUE LA DESCOMPRIMO, QUE PROGRAMA USO. GRACIAS
Nuevamente , muy agradecido por tu aporte.
@victor77 hay que renombrar a .rar
escandog.part1
error me dice que si lo renombro puede quedar inutilizado
@victor77 siempre que le cambias la extensi?
@raulitto  a mi tambien me pasa que @victor77  . te agradecere me lo grafiques , por favor gracias  
@raulitto  Gracias solo es cambiar el nombre . Saludos Amigo te dejo + 10
Gracias bro , siempre la quize ver entera la peli  
GRACIAS YA LA DESCOMPRIMI, FELIZ NAVIDAD
la cortina de humo
Muchas gracias por compartir.
Saludos
@akula1977 fijate que por lo animal que soy empez?
Excelente aporte! Muchas gracias!
@bichi83 gracias a ti por pasar
Gracias amigo!!
Puedes resubirla please  
@erikaeleniak con gusto amigo, solo dame unos días, máximo al fin de semana ya estará, pues mi internet es una porquería para subir, si quieres solo el audio para pegarselo a un mejor video, ese si queda en un rato.
Muchisimas gracias compañero aqui se nota la verdadera intencion de compartir y como no me quiero quedar atras un compañero aqui en identi hizo un pedido enorme de peliculas  http://www.identi.li/index.php?action=comunidades;sa=verpost&id=30192  y justo las encontre todas en la red y ahora le ando pasando los enlaces si ves alguna pelicula en la lista que quieras hazmelo saber y te la mando en privado porque no puedo colocar    
el nombre o alusion de otra pagina porque me banean  
@erikaeleniak, @lefarocu   amigos, gracias por sus amables comentarios, según yo ya quedé el enlace de Zippy y los últimos 2 ya los pude subir a go4up, por eso ya están en solidfiles y uptobox, por favor chéquenlo y cualquier cosa me avisan, no tiene contraseña y espero les sirva.
gracias excelente aporte podrias ponerlos de nuevo no estan todos los link mil gracias
@alemusn Amigo gracias por pasar, veo que ya se murieron los enlaces, pero dame 2 días para volverla a subir,ya que mi internet es muy lento y cuando esté te nombro, saludos.
@alemusn   amigo disculpa, pero me costó mucho trabajo subirla otra vez, empezando con que ya no la tenía, pero esta es 1080p aunque ligera, no encontré mejor video para pegarle el audio, por favor checa si te sirve.
Para dejar un comentario Registrate! o.. eres ya usuario? Accede!
Facebook Identi