Not Safe For Work [HDRip][Castellano][2014]




Un joven asistente de abogado se verá atrapado en una oficina con un asesino que tiene la misión de destruir unos archivos para otra corporación.



TÍTULO ORIGINAL: Not Safe for Work
AÑO: 2014
DURACIÓN: 89 min.
PAÍS: [Estados Unidos]
DIRECTOR: Joe Johnston
REPARTO: Max Minghella, JJ Feild, Eloise Mumford, Christian Clemenson, Tom Gallop
GÉNERO: Thriller

General
Format                                   : AVI
Format/Info                              : Audio Video Interleave
File size                                : 841 MiB
Duration                                 : 1h 11mn
Overall bit rate                         : 1 653 Kbps
Writing application                      : Lavf53.32.100
Original source form/Name                : NOT_SAFE_FOR_WORK

Video
ID                                       : 0
Format                                   : MPEG-4 Visual
Format profile                           : Advanced [email protected]
Format settings, BVOP                    : 2
Format settings, QPel                    : No
Format settings, GMC                     : No warppoints
Format settings, Matrix                  : Default (H.263)
Muxing mode                              : Packed bitstream
Codec ID                                 : XVID
Codec ID/Hint                            : XviD
Duration                                 : 1h 11mn
Bit rate                                 : 1 194 Kbps
Width                                    : 720 pixels
Height                                   : 388 pixels
Display aspect ratio                     : 1.85:1
Frame rate                               : 25.000 fps
Color space                              : YUV
Chroma subsampling                       : 4:2:0
Bit depth                                : 8 bits
Scan type                                : Progressive
Compression mode                         : Lossy
Bits/(Pixel*Frame)                       : 0.171
Stream size                              : 608 MiB (72%)
Writing library                          : XviD 64

Audio
ID                                       : 1
Format                                   : AC-3
Format/Info                              : Audio Coding 3
Mode extension                           : CM (complete main)
Format settings, Endianness              : Big
Codec ID                                 : 2000
Duration                                 : 1h 11mn
Bit rate mode                            : Constant
Bit rate                                 : 448 Kbps
Channel(s)                               : 6 channels
Channel positions                        : Front: L C R, Side: L R, LFE
Sampling rate                            : 48.0 KHz
Bit depth                                : 16 bits
Compression mode                         : Lossy
Stream size                              : 228 MiB (27%)
Alignment                                : Aligned on interleaves
Interleave, duration                     : 32 ms (0.80 video frame)






http://www23.zippyshare.com/v/89432531/file.html
http://www46.zippyshare.com/v/28277808/file.html
http://www37.zippyshare.com/v/83397335/file.html
http://www42.zippyshare.com/v/44212590/file.html
http://www72.zippyshare.com/v/55812737/file.html
[/size]
descargar peliculas - descargar programas
0 Puntos Score: 0/10
Visitas: 844 Favoritos: 0
0 Comentarios Not Safe For Work [HDRip][Castellano][2014]
Este post no tiene comentarios. Sea el primero!
Para dejar un comentario Registrate! o.. eres ya usuario? Accede!
Facebook Identi