Thats My Boy (2012) CAM mkv 450mb & avi 699mb

MKV



That?s My Boy 2012 CAM XviD AC3 ? TODE



Format : AVI
Format/Info : Audio Video Interleave
File size : 699 MiB
Duration : 1h 48mn
Overall bit rate : 900 Kbps
Writing application : Lavf54.3.100

Video
ID : 0
Format : MPEG-4 Visual
Format profile : [email protected]
Format settings, BVOP : No
Format settings, QPel : No
Format settings, GMC : No warppoints
Format settings, Matrix : Default (H.263)
Codec ID : XVID
Codec ID/Hint : XviD
Duration : 1h 48mn
Bit rate : 824 Kbps
Width : 640 pixels
Height : 320 pixels
Display aspect ratio : 1.85:1
Frame rate : 29.970 fps
Color space : YUV
Chroma subsampling : 4:2:0
Bit depth : 8 bits
Scan type : Progressive
Compression mode : Lossy
Bits/(Pixel*Frame) : 0.134
Stream size : 640 MiB (92%)
Writing library : XviD 64

Audio
ID : 1
Format : AC-3
Format/Info : Audio Coding 3
Mode extension : CM (complete main)
Format settings, Endianness : Big
Codec ID : 2000
Duration : 1h 48mn
Bit rate mode : Constant
Bit rate : 64.0 Kbps
Channel(s) : 2 channels
Channel positions : Front: L R
Sampling rate : 48.0 KHz
Bit depth : 16 bits
Compression mode : Lossy
Stream size : 49.7 MiB (7%)
Alignment : Aligned on interleaves
Interleave, duration : 32 ms (0.96 video frame)
esperando......
Thats My Boy (2012) CAM mkv 450mb & avi 699mb
0 Puntos Score: 0/10
Visitas: 1690 Favoritos: 1
3 Comentarios Thats My Boy (2012) CAM mkv 450mb & avi 699mb
amigo buen aporte, pero esperaria a tenr los sub antes de hacer el post, ya que no tendras puntos y te seguiran reclamando por no tener los sub, saca el sub de arabe de el post de TED, yo encontre los en ingles pero no los baje y los buscare de nuevo, yo se ingles asi qeu no me hacen falta pero como consejo amigo mio, le recomiendo que los post los hagas  completos una  vez que tengas los subtitulos.

saludos  compadritoooo
Cita WOLVIELVIS: Mostrar
te entiendo men pero subo la pelicula para que la tengan antes y los subtitulos creo que son un detalle ahy que tener paciencia  siempre aparecen tarde
Para dejar un comentario Registrate! o.. eres ya usuario? Accede!