[Pedido] Rastro Oculto (castellano)




Dirección: Gregory Hoblit
País: USA
Año: 2008
Duración: 100 min.
Género: Thriller.
Interpretación: Diane Lane (Jennifer Marsh), Billy Burke (detective Eric Box), Colin Hanks (Griffin Dowd), Joseph Cross (Owen), Mary Beth Hurt (Stella), Daniel Liu (Tom Moy), Perla Haney-Jardine (Annie), Peter Lewis (Richard Brooks), Chris Cousins (David Williams), Brynn Baron (Sra. Miller).
Guión: Robert Fyvolent, Mark R. Brinker y Allison Burnett.
Producción: Steven Pearl, Andy Cohen, Tom Rosenberg, Gary Lucchesi y Howard Koch Jr.
Música: Christopher Young.
Fotografía: Anastas Michos.
Montaje: David Rosenbloom.
Diseño de producción: Paul Eads.
Vestuario: Elisabetta Beraldo.
Estreno en USA: 25 Enero 2008.
Estreno en España: 4 Abril 2008.

General
Complete name: Rastro Oculto (castellano).mp4
Format: MPEG-4
File size: 274 MiB

Duration: 1h 36mn
Overall bit rate: 397 Kbps

Video
Format/Info: Advanced Video Codec

Format settings, ReFrames: 1 frame

Bit rate: 270 Kbps

Width: 576 pixels
Height: 240 pixels
Display aspect ratio: 2.40:1
Frame rate: 25.000 fps

Bit depth: 8 bits

Scan type: Progressive
Stream size: 182 MiB (67%)


Audio
Format/Info: Advanced Audio Codec

Bit rate: 128 Kbps

Channel(s): 2 channels
Channel positions: Front: L R
Sampling rate: 44.1 KHz
Compression mode: Lossy
Stream size: 88.4 MiB (32%)
SINOPSIS
El FBI cuenta con un departamento que se dedica únicamente a investigar y perseguir a los delincuentes que actúan en Internet. La agente especial Jennifer Marsh creía haberlo visto todo? hasta ahora. Un depredador cibernético cuelga torturas y asesinatos en su página web. El destino de sus prisioneros depende del público: cuantas más visitas registre su página web, más deprisa morirán las víctimas. Cuando el juego del gato y del ratón se convierte en algo personal, Jennifer y su equipo deberán lanzarse a una carrera contrarreloj para encontrar al asesino.





Maxtor87.Identi


No se vayan sin comentar...
[Pedido] Rastro Oculto (castellano)
0 Puntos Score: 0/10
Visitas: 1177 Favoritos: 2
12 Comentarios [Pedido] Rastro Oculto (castellano)
esto se considera spam ........



trata de correguirlo ok , saludos  
amigo muchisisisisisisisimas gracias de vedad men muchisimas gracias no sabes cuanto busque esta peli, ahiiiii como me duele no por darte puntos.....
@jax17 no entiendo donde esta el spam... expl?
@bagoz lo q importa es la comunidad de Identi q somos todos... saludos  
buena peli y mas bueno el aporte gracias hermano  
@jax17 la imagen es la caratula original del DVD... la verdad no entiendo  
@kiko615 gracias bro  
igual como kieras y esta es la caratula del dvd ......

@jax17 lo siento bro... n me habia fijado q se habia caido la imagen (FAIL mio), gracias  
@jax17 lo q noto raro es q es ahora cuando veo la imagen ca?
Una pregunta, son 2 partes o solo 1? Porque cuando descargo el primer link me dice part2....Gracias!!
Para dejar un comentario Registrate! o.. eres ya usuario? Accede!