Foo Fighters-Monkey Wrench (Video HD 1080p)

Foo Fighters-Monkey Wrench (Video HD 1080p)







Foo Fighters-Monkey Wrench (Video HD 1080p)
Format                         : MPEG-4
Format profile                 : Base Media / Version 2
Codec ID                       : mp42
File size                      : 386 MiB
Duration                       : 8mn 58s
Overall bit rate mode          : Variable
Overall bit rate               : 6 018 Kbps
Encoded date                   : UTC 2011-05-15 10:37:20
Tagged date                    : UTC 2011-05-15 10:37:20


Video
ID                             : 1
Format                         : AVC
Format/Info                    : Advanced Video Codec
Format profile                 : [email protected]
Format settings, CABAC         : Yes
Format settings, ReFrames      : 1 frame
Format settings, GOP           : M=1, N=25
Codec ID                       : avc1
Codec ID/Info                  : Advanced Video Coding
Duration                       : 8mn 58s
Bit rate                       : 5 862 Kbps
Maximum bit rate               : 11.8 Mbps
Width                          : 1 920 pixels
Height                         : 1 080 pixels
Display aspect ratio           : 16:9
Frame rate mode                : Constant
Frame rate                     : 25.000 fps
Color space                    : YUV
Chroma subsampling             : 4:2:0
Bit depth                      : 8 bits
Scan type                      : Progressive
Bits/(Pixel*Frame)             : 0.113
Stream size                    : 376 MiB (97%)
Tagged date                    : UTC 2011-05-15 10:37:32

Audio
ID                             : 2
Format                         : AAC
Format/Info                    : Advanced Audio Codec
Format profile                 : LC
Codec ID                       : 40
Duration                       : 8mn 57s
Bit rate mode                  : Variable
Bit rate                       : 152 Kbps
Maximum bit rate               : 182 Kbps
Channel(s)                     : 2 channels
Channel positions              : Front: L R
Sampling rate                  : 44.1 KHz
Compression mode               : Lossy
Stream size                    : 9.75 MiB (3%)














Enlaces De Descarga

no tiene
Foo Fighters-Monkey Wrench (Video HD 1080p)
0 Puntos Score: 0/10
Visitas: 1080 Favoritos: 1
3 Comentarios Foo Fighters-Monkey Wrench (Video HD 1080p)
exelente aporte gracias
esta caido el primer link, si lo arreglas avisame y vuelvo para descargarlo
@vlarga listo men ya estan los link listos.....q lo disfrutes
Para dejar un comentario Registrate! o.. eres ya usuario? Accede!