Piratas Del Caribe En El Fin Del Mundo 1080p BRrip

Piratas Del Caribe En El Fin Del Mundo 1080p mkv BRrip 1080p (Dual latino/ingles 5.1)









PIRATAS DEL CARIBE: EN EL FIN DEL MUNDO
(Pirates of the Caribbean: At world's end)
Dirección: Gore Verbinski.
País: USA.
Año: 2007.
Duración: 168 min.
Género: Acción, aventuras, fantasía.
Guión: Ted Elliott y Terry Rossio; basado en los personajes creados por Ted Elliott, Terry Rossio, Stuart Beattie y Jay Wolpert.
Productora: Walt Disney Pictures, Jerry Bruckheimer Films, Second Mate Productions
Música: Hans Zimmer.
Fotografía: Dariusz Wolski.
Montaje: Stephen E. Rivkin y Craig Wood.
Diseño de producción: Rick Heinrichs.
Vestuario: Penny Rose.
Estreno en USA: 24 Mayo 2007.
Reparto : Johnny Depp (capitán Jack Sparrow), Orlando Bloom (Will Turner), Keira Knightley (Elizabeth Swann), Geoffrey Rush (capitán Barbossa), Bill Nighy (Davy Jones), Chow Yun Fat (capitán Sao Feng), Stellan Skarsgård (Bill Turner), Jack Davenport (James Norrington), Naomie Harris (Tia Dalma), Tom Hollander (lord Cutler Beckett), Jonathan Pryce (gobernador Weatherby Swann).

ficha técnica

Genero: Comedia - Acción - Aventura - Fantástica
Pais: USA
Duracion: 02:48:30
Año: 2007
Tamaño: 4.11 GB
Formato: MKV
Resolución: 1920 x 832

Idioma:
Audio #1
ID                             : 2
Format                         : AC-3
Format/Info                    : Audio Coding 3
Mode extension                 : CM (complete main)
Codec ID                       : A_AC3
Duration                       : 2h 48mn
Bit rate mode                  : Constant
Bit rate                       : 640 Kbps
Channel(s)                     : 6 channels
Channel positions              : Front: L C R, Side: L R, LFE
Sampling rate                  : 48.0 KHz
Bit depth                      : 16 bits
Compression mode               : Lossy
Stream size                    : 771 MiB (18%)
Language                       : English

Audio #2
ID                             : 3
Format                         : AC-3
Format/Info                    : Audio Coding 3
Mode extension                 : CM (complete main)
Codec ID                       : A_AC3
Duration                       : 2h 48mn
Bit rate mode                  : Constant
Bit rate                       : 640 Kbps
Channel(s)                     : 6 channels
Channel positions              : Front: L C R, Side: L R, LFE
Sampling rate                  : 48.0 KHz
Bit depth                      : 16 bits
Compression mode               : Lossy
Stream size                    : 771 MiB (18%)
Language                       : Spanish














Enlaces De Descarga

no tiene
Piratas Del Caribe En El Fin Del Mundo 1080p BRrip
0 Puntos Score: 0/10
Visitas: 2959 Favoritos: 0
24 Comentarios Piratas Del Caribe En El Fin Del Mundo 1080p BRrip
AMIGO HAY TRES PARTES FUERA DE LINEA RESUBELA IGUALMENTE GRACIAS POR EL APORTE PARTES 2 9 12
me encantan tus aportes eres el mejor de todos mas 100
Cita razor025: Mostrar
listo amigo ya los subi de nuevo espero q te guste y disculpa
Cita burbujita: Mostrar
jejeje gracias burbujita q bien que te gusten mis aportes....
2, 9 y 12 fuera de linea  
intenta de nuevo pablo  los acabo de verificar....y perfect
Gracias de categor?
20 link rotoo
listo amigo  intenta de nuevo....esta peli es super te la recomiendo
nada tio ya me baje todas menos la 20 me sale "?
por fin amigo gracias....ya esta bajando la aprte 20   ahora solo me faltaria ver la pela que sigue de esta, despues de cuanto tiempo que se me antojo verla...
a listo lo baje ya
@andrajoso amigo parte 2 y 9 he intentado muchas veces descargar y no deja !! resubelas porfa de antemano excelente aporte
Dame un momento ya vuelvo a subir los link.......disculpa
acabo de verificar los link y estan funcionando perfectamente
los link estan caidos  
voy a resubirla pues me bloquearon la cuenta de mediafire......
@razor025 @luiiiisto @casv11 listo amigos ya subi de nuevo la peli este es el link del aporte
http://www.identi.li/index.php?topic=101549 disfrutenla...saludos
impresionante!!! graciias
podrias resubirla que se cayeron los links, muchisimas gracias por los aportes.
Saludos
@hsnemesis amigo esta peli esta resubida este es el post
http://www.identi.li/index.php?topic=101549 disfrutala...saludos
Para dejar un comentario Registrate! o.. eres ya usuario? Accede!