Selkirk el verdadero Robinson Crusoe dvdrip latino


Selkirk, el verdadero Robinson Crusoe


A través de un acuerdo de coproducción entre empresas de Argentina, Chile y Uruguay se integró una compleja ingeniería para la realización de la película.




Selkirk, pirata rebelde y egoísta, es el piloto del Esperanza, galeón inglés que surca los mares del sur en busca de tesoros.

A falta de buques enemigos, los corsarios se entretienen apostando y en poco tiempo Selkirk ha desplumado sus ahorros presentes y futuros, ganándose le enemistad de la tripulación y sobretodo del capitán Bullock, quien decide abandonarlo en una isla desierta.

Allí debe sepultar sus deseos de venganza y desmedida ambición y encarar una nueva manera de ver el mundo

?Selkirk, el verdadero Robinson Crusoe? cuenta la historia casi verdadera del náufrago que inspiró al escritor inglés Daniel Defoe.

TRAILER



PÁGINA OFICIAL

Cita: Mostrar







CAPTURAS










COMENTARIOS

el director uruguayo es un maestro, si averiguan tim burton le ha copiado... pero ahora latinoamerica esta mas grande, hay mas plata(chile) con tecnicos fabulosos (argentina) y un maestro de talla mundial (uruguay), exiliado en peru y retornado. esto sera como como ver la novia? cadaver pero con la sabrosura latina, sera ver el mundo de jack sureño, o mas aun ver caroline pero sabiendo que el alma dada a estos muñecos de silicona (animacion) fue dada por latinos

INFORMACIÓN

Format  : AVI
Format/Info  : Audio Video Interleave
File size    : 949 MB
Duration : 1h 19mn
Overall bit rate  : 1 673 Kbps
Writing application    : Lavf53.21.0
Original source form/Name   : Selkirk.El.Verdadero.Robinson.Crusoe.2012.DVDR.Latino

Video
ID : 0
Format  : MPEG-4 Visual
Format profile    : Advanced [email protected]
Format settings, BVOP  : 2
Format settings, QPel  : No
Format settings, GMC   : No warppoints
Format settings, Matrix : Default (H.263)
Muxing mode  : Packed bitstream
Codec ID : XVID
Codec ID/Hint : XviD
Duration : 1h 19mn
Bit rate : 1 470 Kbps
Width   : 720 pixels
Height  : 388 pixels
Display aspect ratio   : 1.856
Frame rate   : 23.976 fps
Color space  : YUV
Chroma subsampling : 4:2:0
Bit depth    : 8 bits
Scan type    : Progressive
Compression mode  : Lossy
Bits/(Pixel*Frame) : 0.219
Stream size  : 834 MiB (88%)
Writing library   : XviD 1.2.1 (UTC 2008-12-04)

Audio
ID : 1
Format  : AC-3
Format/Info  : Audio Coding 3
Mode extension    : CM (complete main)
Codec ID                    : 2000
Duration : 1h 19mn
Bit rate mode : Constant
Bit rate : 192 Kbps
Channel(s)   : 2 channels
Channel positions : Front: L R
Sampling rate : 48.0 KHz
Bit depth    : 16 bits
Compression mode  : Lossy
Stream size  : 109 MiB (11%)
Alignment    : Aligned on interleaves
Interleave, duration   : 32 ms (0.77 video frame)
DESCARGA



CONTRASEÑA PARA DESCOMPRIMIR CON 7ZIP

marioloco8
Selkirk el verdadero Robinson Crusoe dvdrip latino
0 Puntos Score: 0/10
Visitas: 2026 Favoritos: 1
4 Comentarios Selkirk el verdadero Robinson Crusoe dvdrip latino
Alguien sabe como se elimina un post antiguo?????
MUCHAS GRACIAS POR LA PELICULA
Hola. Primero que nada gracias por tu tiempo. Necesito que me orientes: se me cargan varios archivos de distintos valores, el jodowloader pasa por todos ellos marcando al resto como mirror, luego no pasa nada, debo borrar alguno? si es as?
Para dejar un comentario Registrate! o.. eres ya usuario? Accede!