The Amazing Spider-Man Unmasked HDTV x264-2HD



The Amazing Spider-Man Unmasked HDTV x264-2HD









como fue el rodaje de The Amazing Spider-Man Unmasked







Format: MPEG-4
Format profile: Base Media
Codec ID: isom
File size: 195 MiB
Duration: 22mn 17s
Overall bit rate mode: Variable
Overall bit rate: 1 221 Kbps
Encoded date: UTC 2012-06-23 03:27:12
Tagged date: UTC 2012-06-23 03:27:12

Video
ID: 1
Format: AVC
Format/Info: Advanced Video Codec
Format profile: [email protected]
Format settings, CABAC: Yes
Format settings, ReFrames: 5 frames
Codec ID: avc1
Codec ID/Info: Advanced Video Coding
Duration: 22mn 17s
Bit rate: 1 095 Kbps
Maximum bit rate: 4 438 Kbps
Width: 720 pixels
Height: 404 pixels
Display aspect ratio: 16:9
Frame rate mode: Constant
Frame rate: 29.970 fps
Color space: YUV
Chroma subsampling: 4:2:0
Bit depth: 8 bits
Scan type: Progressive
Bits/(Pixel*Frame): 0.126
Stream size: 175 MiB (90%)
Writing library: x264 core 125 r2200 999b753
Encoding settings: cabac=1
Encoded date: UTC 2012-06-24 03:18:43
Tagged date: UTC 2012-06-23 03:27:17
Matrix coefficients: BT.709-5, BT.1361, IEC 61966-2-4 709, SMPTE RP177

Audio
ID: 2
Format: AAC
Format/Info: Advanced Audio Codec
Format profile: LC
Codec ID: 40
Duration: 22mn 17s
Bit rate mode: Variable
Bit rate: 122 Kbps
Maximum bit rate: 147 Kbps
Channel(s): 2 channels
Channel positions: Front: L R
Sampling rate: 48.0 KHz
Compression mode: Lossy
Delay relative to video: -3s 337ms
Stream size: 19.4 MiB (10%)
Encoded date: UTC 2012-06-23 03:27:17
Tagged date: UTC 2012-06-23 03:27:17



Enlaces De Descarga

MEDIAFIRE BORRA LOS ENLACES DESPUÉS DE UNOS DIAS



CUANDO MEDIAFIRE YA NO ESTE EN LINEA








NO TIENE




BUSCANDOLOS  EN LOS UNIVERSOS PARALELOS POR QUE EN ESTE NO ESTA





The Amazing Spider-Man Unmasked HDTV x264-2HD
5 Puntos Score: 5/10
Visitas: 3129 Favoritos: 1
Ver los usuarios que votaron...
19 Comentarios The Amazing Spider-Man Unmasked HDTV x264-2HD
yo pense que era la p'elicula pero mal aporte si vas a seguir asi no aporte nada
@ClarkKent disculpa por ofenderte de esa manera tan cruel y despiadada, estan mejor tus aportes a nuestra web  
buen aporte y pobre el amigo clark  lo as da?
no lo voy a ver pero se agradece tu esfuerzo pobre al amigo clark pare la neta uno no sabe que tal si es un megafanatico jaja se agradece tu aporte
ClarkKent: NO TIENE DERECHO HA ABLAR ASI PORQUE AL FIN Y AL CABO NO ES SU APORTE Y EL NO SE ESFORSO EN SIBIRLO  
a mi me parece un excelente aporte!!! quiero ver como hicieron la pelicula!!! gracias  
@i_van @i_van @dark2012 @Raone @otromas @groso24
Agradezco su Visita y el gran apoyo a mi post
ClarkKent la verdad aveces aporta uno mas quedandose callado... buen post Amigo  
[SEPARADOR]2015[/SEPARADOR]
ClarkKent de perdida si no aportamos nada
hay que dejar los malos comentarios
@ClarkKent deberias leer mejor los titulos para que no te entres a unpost a ofender

@cips buen aporte me lo llevo yo soy un gran fan de las peliculas de Spiderman
excelente el post, gracias
loco ese aporte esta bien gracias a @clips por su ayuda .....y a ti amigo @clarkkent no seas mas estupido de lo que ya pareces con ese nombre como va a ser una movie completa donde todavia no ha salido bien en los cines y aunque la tuviera alguien no seria original o hd se veria super mal gravada de cine pero con lo que el hiso nosotros podemos tener una idea de la movie ok.
muy mal , haz un poco mas de esfuerzo
clark kent dedicate a tu granja
el capitulo 9, 11 y 12 no sirven los links, arreglalos men....
http://127.0.0.1:9666/flash/addcrypted2 no sirven los link ...
tengo el JD abierto y no agrega nada... puedes postear los links individuales?
@leyber123 los links funiconan me gustan tus post son geniales igual a ti  
@erizoeric nose de que me hablas, pero gracias por visitar mi post  
Para dejar un comentario Registrate! o.. eres ya usuario? Accede!