Oops.. Este post tiene los enlaces eliminados!

Identi revisa las denuncias de los usuarios en busca de enlaces eliminados que no dejan descargar los archivos, este mensaje te informa que este post que estas viendo tiene los enlaces eliminados.

Usa el Buscador

Por favor, te recomendamos que uses el buscador para encontrar más alternativas.

Tiësto in Concert - Disneyland Paris [720p][LRF2]

  • Categoría: Reciclaje
  • Publicado hace más de 4 años


Bienvenidos a este post Identikeros...


Hace un tiempo que no hacía ningún aporte, pero estoy de vuelta, en esta ocasión les traigo al mejor DJ del mundo (a mi parecer claro), Tiësto, mi favorito...


Tiësto in Concert - Disneyland Paris, en calidad HD, real 1280p x 720p, espero que lo disfruten y que pasen un buen rato...




Tiësto in Concert - Disneyland Paris
Real HD [1280p x 720p]











Datos generales


Nacimiento: 17 de enero de 1969 (43 años)

Estatura: 1.88 mts

Origen: Breda, Países Bajos

Ocupación: DJ, productor


Información artística


Otros nombres: Allure, Da Joker, Opinio, DJ Limited, Drumfire, Gouryella, Hammock Brothers, Paradise In Dubs, Passenger, Roze, Stray Dog, TB X-Press, Tom Ace, West & Storm, Wild Bunch, Boys Will Be Boys, Taxigirl, Jedidja ...

Género(s): Trance,Progressive Trance, House, Progressive House

Período de actividad: 1985 - presente

Discográfica(s): Noculan (1994), Basic Beat (1994?1997), Lightning (1995?1996), XSV Music (1997), Black Hole (1997?2009), Ultra Records (2007-Presente), Musical Freedom (2009?Presente)

Tracklist del Concierto

01 Tiesto - Forever Today (Intro)

02 Hammer & Bennet - Language (Santiago Nino Dub Tech Remix)

03 Inner Stories - Beyond

04 Estuera vs. Re:Locate - Palma Salone

05 Blank & Jones ft. Bobo - Perfect Silence (E-Craig's "212" Mix)

06 Adam White & Andy Moor pr. Whiteroom ft. Amy Cooper - Someday (Original Instrumental Mix)

07 Sensorica vs. J Key - Only One

08 Tiesto - Just Be (Original Mix)

09 Mr Sam - Lyteo (Rank 1 Remix)

10 Rank 1 - Beats at Rank1 dot com

11 ID

12 Ernesto vs. Bastian - Darkside Of The Moon

13 Tiesto - Olympic Flame
14 Tiesto - Forever Today [With Live Electric Violin Perfomance by DJ Mason]

15 Ron van den Beuken - Sunset

16 Jonas Steur - Silent Waves

17 Allure - The Loves We Lost

18 Sinead O'Connor - Troy (Push Remix)

19 Matthew Dekay vs. Proluctors - Bad

20 Skin - Faithfulness (Tiesto Remix)

21 Tiesto - Traffic

22 Abel Ramos - Aquarius (Randy Katana's "Dubdown" Remix)

23 The Freak pr. Exo - Above The Clouds (Mark Norman Remix)

24 ID

25 Darren Tate - Prayer For A God

26 Tiesto - Lethal Industry (Tiesto 2004 Edit) [With Live Electric Violin Perfomance by DJ Mason]

27 M.I.D.O.R. & Six4Eight - No Man's Land

28 Joop - The World

29 Push - Universal Nation (Montana Edit)

30 Tiesto - Adagio For Strings

31 ID

Detalles del Video

General
Complete name : MO-A13-TIËC-DP.mp4
Format    : MPEG-4
Codec ID   : mp42
File size  : 1.06 GB
Duration   : 51mn 13s


Video

Format    : AVC
Format/Info : Advanced Video Codec
Codec ID   : avc1
Codec ID/Info : Advanced Video Coding
Duration   : 51mn 13s
Width    : 1 280 pixels
Height    : 720 pixels
Display aspect ratio  : 16:9
Stream size : 1.00 GiB (95%)

Audio

Format    : AAC
Format/Info : Advanced Audio Codec
Codec ID   : 40
Duration   : 51mn 13s
Channel(s)  : 2 channels
Channel positions   : Front: L R
Sampling rate : 44.1 KHz
Compression mode    : Lossy
Stream size : 55.7 MiB (5%)










- Instrucciones:


1. Descargar los archivos y guardar en una carpeta a conveniencia, unir las partes con  File Spliter & Joiner (v3.3). No se asusten si no reconocen el formato .001, el formato .__A es es mismo solo que encriptado. (HJSplit puede funcionar en algunos casos, pero no es recomendado)


2. El resultado será un archivo .ZIP, decomprimir el archivo y listo, tendran un archivo .DAT con el video.


3. Debido a que una de mis cuentas en Mediafire fué suspendida he agregado un nuevo detalle a mis métodos de seguridad, al descomprimir el archivo .ZIP como resultado verán un archivo .DAT, entre otras cosas, este archivo es el video, cambiar la extensión .DAT y colocar .MP4.

Links de Descarga

Mediafire

- Nota: En total son: 6 partes (5 de 200.00 MB; 1 de 82.00 MB).



Putlocker

- Nota: En total son: 3 partes (2 de 500.00 MB; 1 de 81.75 MB).





www.identi.li/LRF2


Tiësto in Concert - Disneyland Paris [720p][LRF2]
4 Puntos Score: 4/10
Visitas: 2842 Favoritos: 1
Ver los usuarios que votaron...
10 Comentarios Tiësto in Concert - Disneyland Paris [720p][LRF2]
@stebcar Es del 2005 viejo...
Gracias men download!!
excelente por su puesto es el mejor Dj del mundo, aguante Tiesto y aguante Ibiza!!!
hermano fijate xq a la hora de descomprimirlo con el filesplitter descomprime el primer archivo nada mas, el 2 y el ni los toma
@huriel_mza Viejo asegurate que ambos tienen el mismo nombre, sin diferencia de extensi?
Cita Lecnel: Mostrar
@Lecnel  Ah weno todas l?
Gracias Que buen Concierto!!!  
Para dejar un comentario Registrate! o.. eres ya usuario? Accede!