Drive [dvdrip latino]

Drive [dvdrip latino]














Durante el día, Driver (Ryan Gosling) trabaja en un taller y es conductor especialista de cine, pero, algunas noches de forma esporádica, trabaja como chófer para delincuentes. Shannon (Brian Cranston), su jefe, que conoce bien su talento al volante, le busca directores de cine y televisión o criminales que necesiten al mejor conductor para sus fugas, llevándose la correspondiente comisión. Pero el mundo de Driver cambia el día en que conoce a Irene (Carey Mulligan), una guapa vecina que tiene un hijo pequeño y a su marido en la cárcel.





General
Complete name          : C:UsersdanyelDesktoppostsdrive.latino.avi
Format            : AVI
Format/Info         : Audio Video Interleave
File size          : 699 MiB
Duration           : 1h 40mn
Overall bit rate         : 973 Kbps
Movie name          : drive.latino
Writing application       : VirtualDub build 30586/release
Copyright          : www.identi.li/danyel_6


Video
ID            : 0
Format            : MPEG-4 Visual
Format profile          : Advanced [email protected]
Format settings, BVOP      : 3
Format settings, QPel      : No
Format settings, GMC       : No warppoints
Format settings, Matrix       : Default (H.263)
Muxing mode         : Packed bitstream
Codec ID           : XVID
Codec ID/Hint          : XviD
Duration           : 1h 40mn
Bit rate           : 835 Kbps
Width            : 640 pixels
Height            : 272 pixels
Display aspect ratio       : 2.35:1
Frame rate          : 23.976 fps
Color space         : YUV
Chroma subsampling        : 4:2:0
Bit depth          : 8 bits
Scan type          : Progressive
Compression mode         : Lossy
Bits/(Pixel*Frame)        : 0.200
Stream size         : 600 MiB (86%)
Writing library         : XviD 64


Audio
ID            : 1
Format            : MPEG Audio
Format version          : Version 1
Format profile          : Layer 3
Mode             : Joint stereo
Mode extension          : MS Stereo
Codec ID           : 55
Codec ID/Hint          : MP3
Duration           : 1h 40mn
Bit rate mode          : Constant
Bit rate           : 128 Kbps
Channel(s)          : 2 channels
Sampling rate          : 44.1 KHz
Compression mode         : Lossy
Delay relative to video       : 11ms
Stream size         : 91.8 MiB (13%)
Alignment          : Split accross interleaves
Interleave, duration       : 42 ms (1.00 video frame)
Interleave, preload duration     : 500 ms
Writing library         : LAME3.98.4
Language           : Latino























http://www.identi.li




Drive [dvdrip latino]
0 Puntos Score: 0/10
Visitas: 1534 Favoritos: 2
8 Comentarios Drive [dvdrip latino]
soyer le premier
gracias bajando
el jdownloader me da error y no puedo descargar estos post que pena si me pudieras pasar los links a escondidas seria genial para usar el IDM  
amigo no se puede descargar que hacer o es muy tonto lo que estoy pidiendo
@cirdyami debes tener el j downloader para poder sescargar lo siento pero solo asi no me eliminan los links
buen post amigo pero no me llebo con jdownloader pero aun asi gracias
Links muertos! Es una pena, se ve interesante la pel?
Para dejar un comentario Registrate! o.. eres ya usuario? Accede!