group sex [dvdrip latino]

group sex [dvdrip latino]














Herman tiene una debilidad por los clubes de striptease. Donny tiene una cosa para condimentos y Tiffany es un artista marcial recién recibido. Estos son los nuevos amigos de Andy después de que él sin sospechar nada sigue su sueño de niña en un grupo de recuperación de la adicción sexual. Al principio, esto parece la mejor noticia posible! Sin embargo, la vida profesional y personal de Andy empieza a desentrañar lo que profundiza sus vínculos con este adorable grupo dañado.



General
Complete name  : TERAPSEX.LATINO.avi
Format   : AVI
Format/Info : Audio Video Interleave
File size : 699 MiB
Duration  : 1h 32mn
Overall bit rate   : 1 059 Kbps
Writing application : Lavf52.50.0
Writing library   : VirtualDub build 30586/release

Video
ID : 0
Format   : MPEG-4 Visual
Format profile    : [email protected]
Format settings, BVOP : No
Format settings, QPel : No
Format settings, GMC : No warppoints
Format settings, Matrix    : Default (H.263)
Codec ID           : XVID
Codec ID/Hint    : XviD
Duration  : 1h 32mn
Bit rate  : 938 Kbps
Width   : 624 pixels
Height   : 352 pixels
Display aspect ratio : 16:9
Frame rate : 23.976 fps
Original frame rate : 25.000 fps
Color space : YUV
Chroma subsampling  : 4:2:0
Bit depth : 8 bits
Scan type : Progressive
Compression mode   : Lossy
Bits/(Pixel*Frame)  : 0.178
Stream size : 619 MiB (89%)
Writing library   : XviD 1.2.1 (UTC 2008-12-04)

Audio           :Latino
ID : 1
Format   : MPEG Audio
Format version    : Version 1
Format profile    : Layer 3
Codec ID           : 55
Codec ID/Hint    : MP3
Duration  : 1h 32mn
Bit rate mode    : Constant
Bit rate  : 112 Kbps
Channel(s) : 2 channels
Sampling rate    : 44.1 KHz
Compression mode   : Lossy
Delay relative to video    : 5ms
Stream size : 73.9 MiB (11%)
Alignment : Split accross interleaves
Interleave, duration : 42 ms (1.00 video frame)
Interleave, preload duration  : 500 ms
















http://www.identi.li



group sex [dvdrip latino]
10 Puntos Score: 10/10
Visitas: 3022 Favoritos: 3
Ver los usuarios que votaron...
15 Comentarios group sex [dvdrip latino]
@peludito amigo deja de hacer spam desde luego que podrias buscar gente pero para eso existen los mensajes privados te recomiendo que no lo vuelvas a hacer para evitar que te eliminen por denuncias gracias
@peludito duncienlo todos!!!! eso es spam y eso no se debe hacer "para una mejor comunidad de identi denuncienlo"  
es buena esta peli ya la he visto
@Koni326M  tirale 10 aqui otra vez me dejaste sin puntos o 20 contribulle con diez no seas mala onda  
@CBastian Esta buena la peli?  
estan fuera los links
@descarjq listo ya estan en linea los links
hago click en el boton pero no me agrega los links
Cita descarjq: Mostrar
lo acabo de probar en las dos peliculas y si funciona debes de tener el jdownloader abierto y luego en agregar links
para que se agreguen
Para dejar un comentario Registrate! o.. eres ya usuario? Accede!