mas que mil palabras [dvdrip latino]

mas que mil palabras [dvdrip latino]














El famoso, hablador y muy mentiroso jefe de una conocida agencia literaria erncarnado por Eddie Murphy, descubre que sólo le quedan mil palabras que decir, tras haber violada un pacto sagrado. Cuando haya agotado todas las palabras que equivalen a cada hoja de un árbol misterioso que creció en su jardín, morirá. Durante la cinta intentará averiguar cómo solucionar su dilema y cambiar un poco.



General
Complete name  : MASQUEMILPALA.LATINO.avi
Format   : AVI
Format/Info : Audio Video Interleave
File size : 699 MiB
Duration  : 1h 31mn
Overall bit rate   : 1 067 Kbps
Writing library   : VirtualDub build 30586/release
Copyright          :www.identi.li
Video
ID : 0
Format   : MPEG-4 Visual
Format profile    : Advanced Simple@L5
Format settings, BVOP : 3
Format settings, QPel : No
Format settings, GMC : No warppoints
Format settings, Matrix    : Default (H.263)
Muxing mode         : Packed bitstream
Codec ID  : XVID
Codec ID/Hint    : XviD
Duration  : 1h 31mn
Bit rate  : 930 Kbps
Width   : 640 pixels
Height   : 272 pixels
Display aspect ratio : 2.35:1
Frame rate : 23.976 fps
Color space : YUV
Chroma subsampling  : 4:2:0
Bit depth : 8 bits
Scan type : Progressive
Compression mode   : Lossy
Bits/(Pixel*Frame)  : 0.223
Stream size : 609 MiB (87%)
Writing library   : XviD 64

Audio           : Latino
ID : 1
Format   : MPEG Audio
Format version    : Version 1
Format profile    : Layer 3
Codec ID           : 55
Codec ID/Hint    : MP3
Duration  : 1h 31mn
Bit rate mode    : Constant
Bit rate  : 128 Kbps
Channel(s) : 2 channels
Sampling rate    : 44.1 KHz
Compression mode   : Lossy
Stream size : 83.8 MiB (12%)
Alignment : Split accross interleaves
Interleave, duration : 42 ms (1.00 video frame)
Interleave, preload duration  : 500 ms
Writing library         : LAME3.98r
Encoding settings  : -m s -V 4 -q 2 -lowpass 17 -b 128























http://www.identi.li



mas que mil palabras [dvdrip latino]
0 Puntos Score: 0/10
Visitas: 1802 Favoritos: 0
9 Comentarios mas que mil palabras [dvdrip latino]
Ya la vi, excelente pelicula, digna para reflexionar , y encontrar un proposito de vida, y servirle a los demas....
Links muertos !!!!  
@lucasfull listo amigo links funcionando
Muchas Gracias por la rapida respuesta, groso !!
@lucasfull espero y sea de tu agrado
Q tal es la peli?  
Cita Sicxx: Mostrar
la verdad esta buena
gracias...............
Para dejar un comentario Registrate! o.. eres ya usuario? Accede!