Oops.. Este post tiene los enlaces eliminados!

Identi revisa las denuncias de los usuarios en busca de enlaces eliminados que no dejan descargar los archivos, este mensaje te informa que este post que estas viendo tiene los enlaces eliminados.

Usa el Buscador

Por favor, te recomendamos que uses el buscador para encontrar más alternativas.

hesher [dvdrip latini]

  • Categoría: Reciclaje
  • Publicado hace más de 4 años
hesher [dvdrip latini]














T.J, un adolescente de 13 años y su padre, ambos destrozados por la trágica pérdida de madre/esposa, viven ahora con la abuela. Un día, de camino a la escuela, T.J se encuentra con Hesher, un veinteañero cerca de los treinta, que ha vivido muchos problemas. Hesher asume los papeles de mentor y torturador, haciendo que T.J se meta en problemas que nunca podría imaginar. Nicole, una joven dependienta de una tienda de ultramarinos que intenta llegar a fin de mes, aparece para proteger a T.J de un ataque, T.J se enamora de Nicole, pero Hesher acabará con sus fantasías. Hesher se muda a casa de la abuela, y aunque nadie lo invita, es aceptado.





General
Complete name          : HESHER.LATINO.avi
Format            : AVI
Format/Info         : Audio Video Interleave
File size          : 706 MiB
Duration           : 1h 45mn
Overall bit rate         : 934 Kbps
Writing application       : VirtualDubMod 1.5.4.1 (build 2178/release)
Writing library         : VirtualDub build 30586/release


Video
ID            : 0
Format            : MPEG-4 Visual
Format profile          : Advanced [email protected]
Format settings, BVOP      : 1
Format settings, QPel      : No
Format settings, GMC       : No warppoints
Format settings, Matrix       : Custom
Codec ID           : XVID
Codec ID/Hint          : XviD
Duration           : 1h 45mn
Bit rate           : 797 Kbps
Width            : 624 pixels
Height            : 352 pixels
Display aspect ratio       : 16:9
Frame rate          : 23.976 fps
Original frame rate       : 24.000 fps
Color space         : YUV
Chroma subsampling        : 4:2:0
Bit depth          : 8 bits
Scan type          : Progressive
Compression mode         : Lossy
Bits/(Pixel*Frame)        : 0.151
Stream size         : 602 MiB (85%)
Writing library         : XviD 1.2.1 (UTC 2008-12-04)


Audio
ID            : 1
Format            : MPEG Audio
Format version          : Version 1
Format profile          : Layer 3
Codec ID           : 55
Codec ID/Hint          : MP3
Duration           : 1h 45mn
Bit rate mode          : Constant
Bit rate           : 128 Kbps
Channel(s)          : 2 channels
Sampling rate          : 44.1 KHz
Compression mode         : Lossy
Stream size         : 96.7 MiB (14%)
Alignment          : Split accross interleaves
Interleave, duration       : 42 ms (1.00 video frame)
Interleave, preload duration     : 500 ms
Writing library         : LAME3.98.4
Audio             : Latino























http://www.identi.li




hesher [dvdrip latini]
5 Puntos Score: 5/10
Visitas: 1094 Favoritos: 0
Ver los usuarios que votaron...
7 Comentarios hesher [dvdrip latini]
la queria ver...muchas gracias!!!!
bajando. se agradece
yo nunca veo los link en este formato de descargas
@makachita necesita instalar el jdonwloader, 100% recomendadisimo para las descargas
@romalar777 @cachicamo @elkin82  espero sea de su agrado [email protected] es mejor descargar de jdowloader aparte asi duran mas los enlaces
@makachita descargate mipony mejor que jdownloader..mas amigable diria quizas no mejor...saludos...
Para dejar un comentario Registrate! o.. eres ya usuario? Accede!