cuarto contacto [rmvb r5 latino]

cuarto contacto [rmvb r5 latino]














Una investigadora viaja a un pueblo de Alaska donde se suceden inexplicables desapariciones desde hace 40 años. Las grabaciones de las sesiones de aquellas entrevistas se fundirán con las recreaciones de los sucesos, a fin de acercarse a lo que realmente pasó en aquel pueblo el año 2000. (La película contiene extractos de las supuestas grabaciones reales hechas por la dra. Tyler)





General
Complete name          : C:UsersdanyelDesktoppostsCuarto contacto.rmvb
Format            : RealMedia
File size          : 326 MiB
Duration           : 1h 37mn
Overall bit rate         : 456 Kbps


Video
ID            : 1
Format            : RealVideo 4
Codec ID           : RV40
Codec ID/Info          : Based on AVC (H.264), Real Player 9
Duration           : 1h 37mn
Bit rate           : 391 Kbps
Width            : 720 pixels
Height            : 480 pixels
Display aspect ratio       : 3:2
Frame rate          : 23.976 fps
Standard           : NTSC
Bits/(Pixel*Frame)        : 0.047
Stream size         : 274 MiB (84%)


Audio
ID            : 0
Format            : Cooker
Codec ID           : cook
Codec ID/Info          : Based on G.722.1, Real Player 6
Duration           : 1h 37mn
Bit rate           : 64.1 Kbps
Channel(s)          : 2 channels
Sampling rate          : 44.1 KHz
Bit depth          : 16 bits
Stream size         : 44.9 MiB (14%)

























http://www.identi.li




cuarto contacto [rmvb r5 latino]
0 Puntos Score: 0/10
Visitas: 2602 Favoritos: 1
6 Comentarios cuarto contacto [rmvb r5 latino]
grosa pellicula...pero r5?ya esta esitada en dvd hace como un a?
ni siquiera es la pelicula es viaje al centro de la tierra 2, que perdida de tiempo... fijate bien mejor...
esta peli es buena verla en 1020hp!!! en r5 no!! gracias x tu esfuerzo!  
R5? Hasta en tele la pasan...pero bueno igual alto julepe te llevas.
Cita sancesar: Mostrar
no creo que me alla equivocado lleva 159 descargas y solo tu has dicho eso
no funciona la contrase?
Para dejar un comentario Registrate! o.. eres ya usuario? Accede!