Oops.. Este post tiene los enlaces eliminados!

Identi revisa las denuncias de los usuarios en busca de enlaces eliminados que no dejan descargar los archivos, este mensaje te informa que este post que estas viendo tiene los enlaces eliminados.

Usa el Buscador

Por favor, te recomendamos que uses el buscador para encontrar más alternativas.

Los Protegidos: El Origen T.3 [DVBRip] [Español]

  • Categoría: Reciclaje
  • Publicado hace más de 4 años
Los Protegidos: El Origen T.3 [DVBRip] [Español]

FICHA TECNICA

TÍTULO ORIGINAL: Los protegidos
AÑO COMIENZO: 2010
DURACIÓN: 75 min. aprox.
PAÍS: Espana
CREADORES: Dario Madrona y Ruth Garcia
REPARTO: Antonio Garrido, Marta Calvo, Marta Torne, Ana Fernandez, Luis Fernandez "Perla", Mario Marzo, Priscilla Delgado, Daniel Aviles, Javier Mora, Gracia Olayo, Óscar Ladoire, Javier Mendo, Raul Merida, Manuel Navarro, Natalia Rodriguez, Luisa Gavasa, Alicia Gonzalez Laa
TEMPORADAS: 3
GÉNERO: Fantastico | Drama

INFO DEL RIPEO

General
Complete name: Los_Protegidos_1x01_La.huida.avi
Format : AVI
Format/Info: Audio Video Interleave
Format profile : OpenDML
File size: 1.02 GiB
Duration : 1h 16mn
Overall bit rate : 1 896 Kbps
Writing application: Lavf52.94.0

Video
ID : 0
Format : xvid
Codec ID : xvid
Duration : 1h 16mn
Bit rate : 1 687 Kbps
Width: 720 pixels
Height : 406 pixels
Display aspect ratio : 16:9
Frame rate : 25.000 fps
Bits/(Pixel*Frame) : 0.231
Stream size: 926 MiB (89%)

Audio
ID : 1
Format : MPEG Audio
Format version : Version 1
Format profile : Layer 3
Mode : Joint stereo
Mode extension : MS Stereo
Codec ID : 55
Codec ID/Hint: MP3
Duration : 1h 16mn
Bit rate mode: Constant
Bit rate : 192 Kbps
Channel(s) : 2 channels
Sampling rate: 48.0 KHz
Compression mode : Lossy
Stream size: 105 MiB (10%)
Alignment: Aligned on interleaves
Interleave, duration : 24 ms (0.60 video frame)

SINOPSIS

Un grupo de personas se hacen pasar por una familia, los Castillo Rey con el objetivo de huir de una extrana organizacion que les busca. El motivo no es otro que los poderes sobrenaturales de algunos de sus miembros. Bajo el cuidado de Mario (Antonio Garrido), padre viudo con ciertas inseguridades y Jimena (Angie Cepeda), una madre que ha sufrido el secuestro de su hija Blanca a manos de la gente que les persigue se encuentran el rebelde Culebra (Luis Fernandez), dotado del don de la invisibilidad; Sandra (Ana Fernandez), poseedora de un poder electrico; el pequeno Carlos (Daniel Aviles), hijo de Mario y que domina la telequinesis; Lucia (Priscilla Delgado), una huerfana capaz de leer los pensamientos ajenos y transmitir los suyos propios; y Lucas (Mario Marzo), un adolescente que puede transformarse en otras personas. Ahora deben convivir como si fueran una verdadera familia, ocultando ademas su secreto, mientras buscan un modo de rescatar a Blanca.

LISTADO DE CAPÍTULOS
3x01 - La huida
3x02 - 72 dias sin ti
3x03 - La hora de las hadas
3x04 - ¿Quieres ser mi novio?
3x05 - El hada estresada
3x06 - Te quiero
3x07 - La vida sin Culebra
3x08 - C´est à paname
3x09 - Sin miedo
3x10 - La estrella de los deseos
3x11 - Que empiece la fiesta


Enlaces De Descarga
Los Protegidos: El Origen T.3 [DVBRip] [Español]
2 Puntos Score: 2/10
Visitas: 1522 Favoritos: 0
Ver los usuarios que votaron...
6 Comentarios Los Protegidos: El Origen T.3 [DVBRip] [Español]
HOLA NO TENDRAS LA PRIMER TEMPORADA O LA SEGUNDA NO???
SOY DE ARGENTINA Y QUISIERA VERLA TODA
la siguiente temporada por fa.
muy buen aporte thanks
QUE TEMPORADA ES??? POR Q LAS IMAGENES SON DE LA PRIMERA TEMPORADA Y EL TITULO DICE TERCER TEMPORADA??? CUAL ES?
Yo tengo la segunda temporada en DVDFULL, solo pidanla y ese ser?
Para dejar un comentario Registrate! o.. eres ya usuario? Accede!