Selkirk, el verdadero Robinson Cruso dvdrip latino


Selkirk, el verdadero Robinson Crusoe


A través de un acuerdo de coproducción entre empresas de Argentina, Chile y Uruguay se integró una compleja ingeniería para la realización de la película.




Selkirk, pirata rebelde y egoísta, es el piloto del Esperanza, galeón inglés que surca los mares del sur en busca de tesoros.

A falta de buques enemigos, los corsarios se entretienen apostando y en poco tiempo Selkirk ha desplumado sus ahorros presentes y futuros, ganándose le enemistad de la tripulación y sobretodo del capitán Bullock, quien decide abandonarlo en una isla desierta.

Allí debe sepultar sus deseos de venganza y desmedida ambición y encarar una nueva manera de ver el mundo

?Selkirk, el verdadero Robinson Crusoe? cuenta la historia casi verdadera del náufrago que inspiró al escritor inglés Daniel Defoe.

TRAILER



PÁGINA OFICIAL

Cita: Mostrar







CAPTURAS










COMENTARIOS

el director uruguayo es un maestro, si averiguan tim burton le ha copiado... pero ahora latinoamerica esta mas grande, hay mas plata(chile) con tecnicos fabulosos (argentina) y un maestro de talla mundial (uruguay), exiliado en peru y retornado. esto sera como como ver la novia? cadaver pero con la sabrosura latina, sera ver el mundo de jack sureño, o mas aun ver caroline pero sabiendo que el alma dada a estos muñecos de silicona (animacion) fue dada por latinos

INFORMACIÓN

Format  : AVI
Format/Info  : Audio Video Interleave
File size    : 949 MB
Duration : 1h 19mn
Overall bit rate  : 1 673 Kbps
Writing application    : Lavf53.21.0
Original source form/Name   : Selkirk.El.Verdadero.Robinson.Crusoe.2012.DVDR.Latino

Video
ID : 0
Format  : MPEG-4 Visual
Format profile    : Advanced [email protected]
Format settings, BVOP  : 2
Format settings, QPel  : No
Format settings, GMC   : No warppoints
Format settings, Matrix : Default (H.263)
Muxing mode  : Packed bitstream
Codec ID : XVID
Codec ID/Hint : XviD
Duration : 1h 19mn
Bit rate : 1 470 Kbps
Width   : 720 pixels
Height  : 388 pixels
Display aspect ratio   : 1.856
Frame rate   : 23.976 fps
Color space  : YUV
Chroma subsampling : 4:2:0
Bit depth    : 8 bits
Scan type    : Progressive
Compression mode  : Lossy
Bits/(Pixel*Frame) : 0.219
Stream size  : 834 MiB (88%)
Writing library   : XviD 1.2.1 (UTC 2008-12-04)

Audio
ID : 1
Format  : AC-3
Format/Info  : Audio Coding 3
Mode extension    : CM (complete main)
Codec ID               : 2000
Duration : 1h 19mn
Bit rate mode : Constant
Bit rate : 192 Kbps
Channel(s)   : 2 channels
Channel positions : Front: L R
Sampling rate : 48.0 KHz
Bit depth    : 16 bits
Compression mode  : Lossy
Stream size  : 109 MiB (11%)
Alignment    : Aligned on interleaves
Interleave, duration   : 32 ms (0.77 video frame)
DESCARGA



CONTRASEÑA PARA DESCOMPRIMIR CON 7ZIP

marioloco8
Selkirk, el verdadero Robinson Cruso dvdrip latino
0 Puntos Score: 0/10
Visitas: 2208 Favoritos: 2
8 Comentarios Selkirk, el verdadero Robinson Cruso dvdrip latino
Muy buena calidadd de imagen, excelente de sonido, muy linda para grandes y chicos.
Divertida, sin golpes bajos y con una buena ense?
amigo gracias por el aporte ,, no le puedes hacer un mirros para putlocker y si puedes me avisas gracias
muy bueno tu aporte, pero los links murieron, podrias resubirlo por favor, me quede con ganas de verlo, parece que esta muy bueno, saludos y gracias.
podrias resubir los link? gracias!
Apenas pueda los resubo. promesa.
tengan paciencia.
GRACIAS
gracias, te esperaremos.
@crostyth88 , @arquide , @joaoooox    Links funcionando en putlocker
Cita marioloco8: Mostrar


Gracias amigo pues a descargar se dije !!  
Para dejar un comentario Registrate! o.. eres ya usuario? Accede!