Oops.. Este post tiene los enlaces eliminados!

Identi revisa las denuncias de los usuarios en busca de enlaces eliminados que no dejan descargar los archivos, este mensaje te informa que este post que estas viendo tiene los enlaces eliminados.

Usa el Buscador

Por favor, te recomendamos que uses el buscador para encontrar más alternativas.

Cartoon Network 2 ( Tv rip)

  • Categoría: Reciclaje
  • Publicado hace más de 4 años
Cartoon Network 2




Bueno amigos aca de vuelta les traigo 2 horas y media de cartoon network en calidad exelente, lo probe en un televisor de 29 pulgadas y se ve exelente
bueno lo que grabe fue un show regular , gumball , mad , cine cartoon   la pelicula de ben10 destruccion alienigena y ect







General
Complete name : C:UserssamuelDesktoppeliculas samudibuscartoon network.avi
Format  : AVI
Format/Info  : Audio Video Interleave
File size    : 1.41 GiB
Duration : 2h 30mn
Overall bit rate  : 1 345 Kbps

Video
ID : 0
Format  : MPEG-4 Visual
Format profile    : [email protected]
Format settings, BVOP  : No
Format settings, QPel  : No
Format settings, GMC   : No warppoints
Format settings, Matrix : Default (MPEG)
Codec ID               : XVID
Codec ID/Hint : XviD
Duration : 2h 30mn
Bit rate : 1 208 Kbps
Width   : 720 pixels
Height  : 540 pixels
Display aspect ratio   : 4:3
Frame rate   : 29.970 fps
Resolution   : 24 bits
Colorimetry  : 4:2:0
Scan type    : Progressive
Bits/(Pixel*Frame) : 0.104
Stream size  : 1.27 GiB (90%)
Writing library   : XviD 62

Audio
ID : 1
Format  : MPEG Audio
Format version    : Version 1
Format profile    : Layer 3
Codec ID               : 55
Codec ID/Hint : MP3
Duration : 2h 30mn
Bit rate mode : Constant
Bit rate : 128 Kbps
Channel(s)   : 2 channels
Sampling rate : 44.1 KHz
Resolution   : 16 bits
Stream size  : 138 MiB (10%)
Alignment    : Split accross interleaves
Interleave, duration   : 67 ms (2.00 video frames)


bueno vamos al grano aca les dejo un block de notas donde deje los links adentro
agradecimientos a shine_shine de mxa


http://www.mediafire.com/?bbs34a3bm177m9y


pass :   ( mxa_shine_shine  

copia y pega sin sin parentesis


Cartoon Network 2 ( Tv rip)
20 Puntos Score: 10/10
Visitas: 1765 Favoritos: 0
Ver los usuarios que votaron...
15 Comentarios Cartoon Network 2 ( Tv rip)
Esta en Idioma Latino todo??? o que Idioma es??
Gracias aun asi por compartir, saludos.
Esta en Idioma Latino todo??? o que Idioma es??
Gracias aun asi por compartir, saludos.
@dario2040 si amigo en idioma latino lo grabe la otra vez
Gracias por confirmar, ahora con eso.. compartire un aporte increible.. con gusto seras el primero en verlo.
Saludos
Amigo, te comfirmo, bajado y descomprimido sin problemas, de tus 2 post sobre CN TVRip.
Agradecido contigo...
Amigo una pregunta? subiras mas TVRips de Cartoon Network como los de hasta ahora..?? saludos.
Exelente post como siempre uno de los   :cool:mejores
ja no me gustan los dibujitos
que es ..series de cuales no entendi
@zenek_2012 era 2 horas de cartoon network que grabe nomas y lo subi pero mediafire lo borro ya
oye amigo te comento los capitulos de naruto shiippuden necesitan contrase?
@puchamon  no poste nada de naruto
@papitotuyo disculpa por desvirtuar tu post... pero.......No me dio tiempo para bardearlo ,,, cerro sus comentarios ,,,,se acobardo,,,,jajaja
 @papitotuyo  Que bien grasias por querer pasarme la pagina , pero encontre  unos dvd y los estoy ripeando  y subiendo ya me falta poco para terminar  de subir ,grasias por tu interes.  
link muertos....resubelo porfa ..sigue con MF...MIL GRACIAS...TMB LA PARTE 1
Para dejar un comentario Registrate! o.. eres ya usuario? Accede!