Oops.. Este post tiene los enlaces eliminados!

Identi revisa las denuncias de los usuarios en busca de enlaces eliminados que no dejan descargar los archivos, este mensaje te informa que este post que estas viendo tiene los enlaces eliminados.

Usa el Buscador

Por favor, te recomendamos que uses el buscador para encontrar más alternativas.

Cartoon Network ( Tv rip)

  • Categoría: Reciclaje
  • Publicado hace más de 4 años
Cartoon Network






bueno amigos les quiero compartir 3 horas y media de cartoon network que grabe hace una semana atras donde icluye
garfield,coraje el perro cobarde,las chicas superdorosas z , la vaca y el pollito , ect, lo grabe con comerciales y todo






General
Complete name : C:UserssamuelDesktoppeliculas samudibus20120513-061331 Cartoon.avi
Format  : AVI
Format/Info  : Audio Video Interleave
Format profile    : OpenDML
File size    : 2.17 GiB
Duration               : 3h 14mn
Overall bit rate  : 1 595 Kbps
Writing application    : VirtualDubMod 1.5.10.2 (build 2540/release)
Writing library   : VirtualDubMod build 2540/release

Video
ID : 0
Format  : MPEG-4 Visual
Format profile    : [email protected]
Format settings, BVOP  : No
Format settings, QPel  : No
Format settings, GMC   : No warppoints
Format settings, Matrix : Default (H.263)
Codec ID               : XVID
Codec ID/Hint : XviD
Duration : 3h 14mn
Bit rate : 1 452 Kbps
Width   : 720 pixels
Height  : 540 pixels
Display aspect ratio   : 4:3
Frame rate   : 29.970 fps
Resolution   : 24 bits
Colorimetry  : 4:2:0
Scan type    : Progressive
Bits/(Pixel*Frame) : 0.125
Stream size  : 1.97 GiB (91%)
Writing library   : XviD 62

Audio
ID : 1
Format  : MPEG Audio
Format version    : Version 1
Format profile    : Layer 3
Codec ID               : 55
Codec ID/Hint : MP3
Duration : 3h 14mn
Bit rate mode : Constant
Bit rate : 128 Kbps
Channel(s)   : 2 channels
Sampling rate : 44.1 KHz
Resolution   : 16 bits
Video delay  : 4ms
Stream size  : 178 MiB (8%)
Alignment    : Split accross interleaves
Interleave, duration   : 33 ms (1.00 video frame)
Interleave, preload duration : 500 ms


bueno vamos al grano aca les dejo un block de notas donde deje los links adentro
agradecimientos a shine_shine de mxa



http://www.mediafire.com/view/?bi02ltaejvc9489

pass : ( mxa_shine_shine  

copia y pega sin sin parentesis






Cartoon Network ( Tv rip)
30 Puntos Score: 7.5/10
Visitas: 1590 Favoritos: 1
Ver los usuarios que votaron...
10 Comentarios Cartoon Network ( Tv rip)
A - P - O - R - T - A - Z - O muy bueno espero que sigas grabando un saludo
@amil174
Suspendido por troll, comentarios borrados
Ese canal murio hace a?
disculpa pero cuando sale eso yo tengo el cn pero nunca dan ni coraje ni la vaca y el pollito ni nada de lo que daban antes?
no me gustaqn los dibujitos  
hola felicito la intencion de tu aporte...un pedido no tendras otras secuencias con dibujos mas clasicos que grabaste de ese gran canal (claro cuando lo era),  porfa publicalo con sus comerciales y todo ...MIL GRACIAS
y amigo que fue
????
Para dejar un comentario Registrate! o.. eres ya usuario? Accede!