Berni El Oso Blanco [Audio Latino] [AVI]

INFO DEL VÍDEO:
General
Format               : AVI
Format/Info            : Audio Video Interleave
File size              : 21.8 MiB
Duration               : 3mn 13s
Overall bit rate         : 945 Kbps
Writing application        : VirtualDubMod 1.5.4.1 (build 2178/release)
Writing library          : VirtualDubMod build 2178/release


Video
ID                   : 0
Format               : MPEG-4 Visual
Format profile           : Advanced [email protected]
Format settings, BVOP      : 1
Format settings, QPel      : No
Format settings, GMC       : No warppoints
Format settings, Matrix      : Custom
Codec ID              : XVID
Codec ID/Hint            : XviD
Duration              : 3mn 13s
Bit rate              : 809 Kbps
Width               : 640 pixels
Height                : 352 pixels
Display aspect ratio       : 16:9
Frame rate             : 25.000 fps
Color space             : YUV
Chroma subsampling        : 4:2:0
Bit depth             : 8 bits
Scan type             : Progressive
Compression mode         : Lossy
Bits/(Pixel*Frame)         : 0.144
Stream size            : 18.7 MiB (86%)
Writing library          : XviD 1.1.0 Beta2 (UTC 2005-04-04)


Audio
ID                   : 1
Format               : MPEG Audio
Format version           : Version 1
Format profile           : Layer 3
Mode                 : Joint stereo
Mode extension           : MS Stereo
Codec ID               : 55
Codec ID/Hint            : MP3
Duration               : 3mn 13s
Bit rate mode            : Constant
Bit rate               : 128 Kbps
Channel(s)             : 2 channels
Sampling rate            : 48.0 KHz
Compression mode         : Lossy
Stream size            : 2.95 MiB (14%)
Alignment              : Aligned on interleaves
Interleave, duration       : 80 ms (2.00 video frames)
Interleave, preload duration   : 504 ms
Writing library          : LAME3.96r
Encoding settings          : -m j -V 4 -q 2 -lowpass 17.5 -b 128

IMÁGENES:
DESCARGA:
PASSWORD:
maxlogan25kings

Antencion!!!voy a postear la primera temporada completa solo acabo de subir 6 capítulos son 6 de 20
Berni El Oso Blanco [Audio Latino] [AVI]
5 Puntos Score: 5/10
Visitas: 1366 Favoritos: 3
Ver los usuarios que votaron...
8 Comentarios Berni El Oso Blanco [Audio Latino] [AVI]
Orale no conocia esta serie  
Cita otaku_20: Mostrar
No Es Serie son Como Cortometraje
a fav! buen post amigo!!!!!
@dinonino Gracias Por Pasar Y Comentar  
@maxlogan Bro Gracias Buen Post Avisa Cuando Subas Los Demas
de nada!!!! y ademas te dejo mis 5 de hoy!!!!
Saludos!!!
@maxlogan Mi Ermano No Los Puedo Descargar No Le Entiendo Al Servidor Mejor Cuando Los Subas A Mediafire Me Dices Vale Gracias
Para dejar un comentario Registrate! o.. eres ya usuario? Accede!