Oops.. Este post tiene los enlaces eliminados!

Identi revisa las denuncias de los usuarios en busca de enlaces eliminados que no dejan descargar los archivos, este mensaje te informa que este post que estas viendo tiene los enlaces eliminados.

Usa el Buscador

Por favor, te recomendamos que uses el buscador para encontrar más alternativas.

[Pedido] Shiri 1999 DVDRip [Corea]

  • Categoría: Reciclaje
  • Publicado hace más de 4 años


Que tal amigos, esta peli no la he visto por lo que dejare la critica aquí abajo (Vaya que hay opiniones muy duras para esta película). Por otro lado quera preguntarles como se les haría mas cómodo descargar mis aportes, si con el archivo de texto como los hago actualmente o en un dlc (¿Que es un archivo DLC?) para mi es mejor el dlc por que los enlaces quedan encriptados y no es posible ver los links directos, por coacción hay menos denuncias de links y probablemente los "Reposteros" aficionados se decepcionen al ver que solo es un link y no le pueden sacar mucho provecho al ponerlo con re directores de links en otra paginas, espero sus comentarios al respecto

Cita: Mostrar





Corea está dividida en dos naciones. Lee es una agente secreto del norte enviada al sur dejando atrás su pasado. Tras cambiar de identidad, entra en Seúl formando parte de una operación que recibe el nombre en clave de Shiri.

Un grupo contrario a la unificación del país se apodera de un potente explosivo y planea hacerlo estallar durante un partido de fútbol. En el encuentro, cuyo eslogan es "reunificación de las dos Coreas", asisten los presidentes de ambos bandos. Yoo es un agente secreto del sur encargado de seguir a Lee. Entre ambos surgirá una trágica historia de amor incapaz de superar las diferencias políticas.




Ficha Tecnica


Titulo: Shiri
Titulo (Romaniji):: Swiri
Titulo (Hangul): ??
Director: Kang Je-Gyu
Escritor:  Kang Je-Gyu, Jeon Yun-Su, Park Moon-Hak, Park Je-Hyeon
Productor: Lee Kwon-Hak, Lee Seong-Hun, Byeon Mu-Rim
Fecha de estreno: Febrero 13, 1999
Duracion : 124 min.
Distribuidor: CJ E&M
Idioma: Hangul
Pais: Corea del sur
Género: Thriller. Acción.

Protagonistas:

Han Suk-Kyu - Yu JongWon

Choi Min-Sik - Park Mu-young

Kim Yunjin - Lee Myung-hyun

Song Kang-Ho - Lee Jang-gil

Park Eun-Suk - Lee Bang-Hee

Reparto

Hwang Jung-Min
Jang Hyun-Sung
Kim Su-Ro
Lee Jong-Hyeok
Park Yong-Woo
Ji Dae-Han
Yeo Ho-Min
Yun Ju-Sang
Jo Deok-Hyeon
Park Ji-Il
Jo Seung-Yeon
Lee Pil-Mo
Kim Sang-Mi
Jung Seong-Woo
Nam Myung-Ryul
Yoo Ha-Bok

Archivo

    Format : AVI
    Format/Info : Audio Video Interleave
    File size : 1 001 MiB
    Duration : 2h 5mn

    Overall bit rate : 1 113 Kbps
    Writing application : VirtualDubMod 1.5.4.1 (build 2178/release)
    Writing library : VirtualDubMod build 2178/release
  Video #0
    ID : 0
    Format : MPEG-4 Visual
    Format profile : Advanced [email protected]
    Format settings, BVOP : 1
    Format settings, QPel : No
    Format settings, GMC : No warppoints
    Format settings, Matrix : Custom
    Codec ID : XVID
    Codec ID/Hint : XviD
    Duration : 2h 5mn
    Bit rate : 861 Kbps
    Width : 592 pixels
    Height : 320 pixels

    Display aspect ratio : 1.850
    Frame rate : 23.976 fps
    Color space : YUV
    Chroma subsampling : 4:2:0
    Bit depth : 8 bits
    Scan type : Progressive
    Compression mode : Lossy
    Bits/(Pixel*Frame) : 0.190
    Stream size : 774 MiB (77%)
    Writing library : XviD 1.2.1 (UTC 2008-12-04)

  Audio #1
    ID : 1
    Format : MPEG Audio
    Format version : Version 1
    Format profile : Layer 3
    Mode : Joint stereo
    Mode extension : MS Stereo
    Codec ID : 55
    Codec ID/Hint : MP3
    Duration : 2h 5mn
    Bit rate mode : Variable
    Bit rate : 116 Kbps
    Nominal bit rate : 128 Kbps
    Channel(s) : 2 channels
    Sampling rate : 48.0 KHz
    Compression mode : Lossy
    Stream size : 104 MiB (10%)
    Alignment : Aligned on interleaves
    Interleave, duration : 24 ms (0.58 video frame)
    Interleave, preload duration : 159 ms
    Writing library : LAME3.98r
    Encoding settings : -m j -V 4 -q 2 -lowpass 17 --abr 128
    Language : Korean
    Subtitulos : Español (.srt)


  Audio #2
    ID : 2
    Format : MPEG Audio
    Format version : Version 1
    Format profile : Layer 3
    Mode : Joint stereo
    Mode extension : MS Stereo
    Codec ID : 55
    Codec ID/Hint : MP3
    Duration : 2h 5mn
    Bit rate mode : Variable
    Bit rate : 116 Kbps
    Nominal bit rate : 128 Kbps
    Channel(s) : 2 channels
    Sampling rate : 48.0 KHz
    Compression mode : Lossy
    Stream size : 104 MiB (10%)
    Alignment : Aligned on interleaves
    Interleave, duration : 24 ms (0.58 video frame)
    Interleave, preload duration : 159 ms
    Writing library : LAME3.98r
    Encoding settings : -m j -V 4 -q 2 -lowpass 17 --abr 128
    Language : English














Si el video no se ve da clic Aqui



Enlaces De Descarga
5 partes de 200 Mb y una de 37 Mb

http://www.mediafire.com/?rpbbogzb68i4vzo

Renombrar el archivo y añadir extencion .txt






Si sabes como sacar los enlaces del dlc no lo digas en comentarios no les des la solución a los "reposteros" aficionados
[Pedido] Shiri 1999 DVDRip [Corea]
15 Puntos Score: 5/10
Visitas: 1566 Favoritos: 3
Ver los usuarios que votaron...
15 Comentarios [Pedido] Shiri 1999 DVDRip [Corea]
Me gusta que pongas una "cr?
jooooder, Song Kang-ho y el de Oldboy en la misma peli... seras... , ?
Con respecto al modo de subir tus aportes, por m?
@Fachax En realidad de esta peli no puse opini?
@locoyou Cierto lo que dices amigo, no hay mejor opini?
Es buenisima le doy cinco quintines
gracias por el aporte!!!!
@KaNawogirusa @caba1974 Gracias por pasar amigos!!! Disfruten la pelicula!!!
Gracias amigo se ve interesante
@kenijag Gracias por pasar amigo Saludos. Disfruta la pel?
El link esta caido.
Links caidos  
resubelos por favor quiero mucho esta pelicula nada mas por Choi min sik   es un capo

bien esperare que subas la pelicula te recomiendo que lo subas a skydrive de hotmail ahi no pueden borrar los archivos es solo un consejo sino lo quieres hacer esta bien pero por favor sube la pelicula de nuevo
Hola puedes subirla nuevamente , tal vez a zippyshare o algun otro que te resulte comodo , los links estan caidos hace tiempo y eres el unico que la tiene posteada , gracias !
Para dejar un comentario Registrate! o.. eres ya usuario? Accede!