Oops.. Este post tiene los enlaces eliminados!

Identi revisa las denuncias de los usuarios en busca de enlaces eliminados que no dejan descargar los archivos, este mensaje te informa que este post que estas viendo tiene los enlaces eliminados.

Usa el Buscador

Por favor, te recomendamos que uses el buscador para encontrar más alternativas.

Hindsight 2011 [DVDRip] [Korea]

  • Categoría: Reciclaje
  • Publicado hace más de 4 años


Hola amigos, seguidores, visitantes (si, me robe esa introducción del post de otro user ) en fin todo aquel que este pasando por mi post, muy buena película que les traigo hoy, buen ritmo, buena historia, el gran actor Song Kang-Ho con una actuación esplendida (como de costumbre) y la protagonista uff es hermosa y talentosa .

Corte un poco de la critica por que decia algunas partes de la trama si la quieren leer completa solo sigan el enlace a FilmAffinity
Cita: Mostrar


Cita: Mostrar
(Ya encontre poster de mejor tamaño lol)


Con una actuación soberbia de Kang-ho Song que interpreta a un gangster que busca su redención alejado de la mafia, inspirandose en la cocina para sentirse util lejos de la violencia, Hindsight es una cinta que nos muestra que el crimen siempre paga y que la paz en este mundo del hampa, se encuentra sumergida y retardada hasta que una chispa explosiona y esas ansias de calma remontan en una segunda parte adrenalitica y llena de violencia, muerte y traiciones que nos pondrán en vilo en su parte resolutiva.



Ficha Tecnica


Titulo: Hindsight
Titulo (Romaniji):: Pureun Sogeum
Titulo (Hangul): ???? / ?? ??
Director: Lee Hyun-Seung
Escritor:  Lee Hyun-Seung
Productor: Lee Hyun-Seung, Ahn Soo-Hyun, Kim Sung-Min
Fecha de estreno: Augosto 31, 2011
Duracion : 125 min.
Distribuidor: CJ E&M
Idioma: Korean
Pais: Korean
Género: Thriller. Acción. Romance | Crimen

Protagonistas:

Song Kang-Ho - Doo-Hun
Shin Se-Kyung - Se-Bin
Chun Jung-Myung - Ae-Gu

Reparto

Lee Jong-Hyuk - Kyung-Min
Kim Min-Jun - K
Yoon Yeo-Jung - Madame Kang
Kim Roe-Ha - Ki-Chul
Oh Dal-Su - Teacher Yook
Esom - Eun-Jung
Lee Kyeong-Yeong - Boss Baek

Archivo

    Format : AVI
    Format/Info : Audio Video Interleave
    File size : 1.45 GiB
    Duration : 2h 1mn

    Overall bit rate : 1 705 Kbps
    Writing application : VirtualDubMod 1.5.10.2 (build 2542/release)
    Writing library : VirtualDubMod build 2542/release
 Video #0
    ID : 0
    Format : MPEG-4 Visual
    Format profile : Advanced [email protected]
    Format settings, BVOP : 1
    Format settings, QPel : No
    Format settings, GMC : No warppoints
    Format settings, Matrix : Custom
    Muxing mode : Packed bitstream
    Codec ID : XVID
    Codec ID/Hint : XviD
    Duration : 2h 1mn
    Bit rate : 1 246 Kbps
    Width : 720 pixels
    Height : 304 pixels

    Display aspect ratio : 2.35:1
    Frame rate : 29.970 fps
    Color space : YUV
    Chroma subsampling : 4:2:0
    Bit depth : 8 bits
    Scan type : Progressive
    Compression mode : Lossy
    Bits/(Pixel*Frame) : 0.190
    Stream size : 1.06 GiB (73%)
    Writing library : XviD 1.2.1 (UTC 2008-12-04)

 Audio #1
    ID : 1
    Format : AC-3
    Format/Info : Audio Coding 3
    Mode extension : CM (complete main)
    Codec ID : 2000
    Duration : 2h 1mn
    Bit rate mode : Constant
    Bit rate : 448 Kbps
    Channel(s) : 6 channels

    Channel positions : Front: L C R, Side: L R, LFE
    Sampling rate : 48.0 KHz
    Bit depth : 16 bits
    Compression mode : Lossy
    Stream size : 391 MiB (26%)
    Alignment : Split accross interleaves
    Interleave, duration : 33 ms (1.00 video frame)
    Interleave, preload duration : 500 ms
    Language : Korean
   Subtitulos español (.srt)














Si el video no se ve da clic Aqui



Enlaces De Descarga
7 partes de 200 Mb y una de 151 Mb

http://www.mediafire.com/?zsz7n877vlx267y

Renombrar el archivo y añadir extensión .txt





Hindsight 2011 [DVDRip] [Korea]
15 Puntos Score: 7.5/10
Visitas: 1332 Favoritos: 4
Ver los usuarios que votaron...
25 Comentarios Hindsight 2011 [DVDRip] [Korea]
Song Kang-ho haciendo de mafioso con ganas de redimirse y una actriz de buen ver... Simplemente genial           Descargando en 3... 2... 1...   Gracias amigo, soy fan de este actor y no conoc?
@alexo Pues no estaria mal jajaja
gracias amigo se ve buenisima y si no es mucha molestia podrias conseguir esta movie koreana de 1999 que se llama SHIRI  la vi una sola vez y tengo tiempo buscandola pero no la encuentro y cuando por fin la encuentro esta en filleserve y desactiva la opcion de compartir. bueno gracias amigo  
descargando!! excelente aporte como de costumbre. por casualidad no habr?
@HYAKIMARU Descargando. Dependiendo que tan r?
OH MUCHISIMAS GRACIAS LA ESPERO CON ANSIAS AMIGO MUY AGRADECIDO  
Gran aporte, nuchas gracias por compartir y me sumo a los primeros comentarios la actriz esta....  
por dios como me gustan las coreanas !!!!   , las pelicualas !!!   , ya las mujeres tambien ..XDDDD , gracias amigo !!!
gracias hermano exelente el post,
thanks man... descargando y viendo se ve que esta bastante buena...  
no se bajarlo tengo 20gb en el disco estoy apretado...

che me dan un puntaje para la peli asi no la bajo o la bajo.
@Walterium @Akira666 @xperia @Raizen Muchas gracias amigos por pasar y comentar, me alegra que sea de su agrado mi post

@alexo Yo le daria un 8 en la critica que puse le da 8.5
Cita sper91: Mostrar
compadre tengo problemas para descomprimir me dice contrase?
@alexo jajaja ok, vi la de amelie ayer y si esta buena para pasar el rato jeje, Gracias por la recomendacion amigo

@Fachax Gracias por pasar amigo. Disfruta la pelicula!!!

@xperia el archivo que descargaste (parte 4) se da?
Cita sper91: Mostrar
Song Kang-Ho es un ACTORASO !!! me la llevo amigo,gracias.
@mocoreta0 Disfruta la peli amigo Gracias por pasar y comentar
Para dejar un comentario Registrate! o.. eres ya usuario? Accede!