El inicio que nunca vimos en Superman Returns HD

  • Categoría: Comic
  • Publicado hace más de 4 años

El inicio que nunca vimos en Superman Returns  HD


Hola amigos de www.identi.li mas de uno vimos Superman Returns y nos quedamos con la sensación de que hizo falta algo, tiempo después nos enteramos de una escena inicial con un costo de 10 millones de dolares que fue eliminada de la versión final que nos mostraron en el cine.


Información del vídeo.



Format               : MPEG-4
Format profile           : Base Media / Version 2
Codec ID               : mp42
File size              : 97.1 MiB
Duration               : 5mn 41s
Overall bit rate mode      : Variable
Overall bit rate         : 2 386 Kbps
Encoded date             : UTC 2011-06-21 07:50:37
Tagged date            : UTC 2011-06-21 07:50:37
gsst                 : 0
gstd                 : 341245
gssd                 : BC834C502MH1311011370635642
gshh                 : o-o.preferred.megacable-gdl1.v13.lscache6.c.youtube.com

Video
ID                   : 1
Format               : AVC
Format/Info            : Advanced Video Codec
Format profile           : [email protected]
Format settings, CABAC       : Yes
Format settings, ReFrames    : 1 frame
Format settings, GOP       : M=1, N=24
Codec ID               : avc1
Codec ID/Info            : Advanced Video Coding
Duration               : 5mn 41s
Bit rate               : 2 228 Kbps
Maximum bit rate         : 5 739 Kbps
Width                : 1 920 pixels
Height               : 1 080 pixels
Display aspect ratio       : 16:9
Frame rate mode          : Variable
Frame rate             : 23.976 fps
Minimum frame rate         : 17.241 fps
Maximum frame rate         : 24.390 fps
Color space            : YUV
Chroma subsampling         : 4:2:0
Bit depth              : 8 bits
Scan type              : Progressive
Bits/(Pixel*Frame)         : 0.045
Stream size            : 90.7 MiB (93%)
Tagged date            : UTC 2011-06-21 07:50:39

Audio                :Ingles
ID                   : 2
Format               : AAC
Format/Info            : Advanced Audio Codec
Format profile           : LC
Codec ID               : 40
Duration               : 5mn 41s
Bit rate mode            : Variable
Bit rate               : 152 Kbps
Maximum bit rate         : 260 Kbps
Channel(s)             : 2 channels
Channel positions          : Front: L R
Sampling rate            : 44.1 KHz
Compression mode         : Lossy
Stream size            : 6.18 MiB (6%)
Title                : IsoMedia File Produced by Google, 5-11-2011
Encoded date             : UTC 2011-06-21 07:50:38
Tagged date            : UTC 2011-06-21 07:50:39


Capturas:




















El inicio que nunca vimos en Superman Returns HD
0 Puntos Score: 0/10
Visitas: 2533 Favoritos: 3
20 Comentarios El inicio que nunca vimos en Superman Returns HD
Superman Regresa escena eliminada del inicio de la pelicula que jamas se mostro en el cine.
En alta definicion 1080p
Sin password

http://www.mediafire.com/?hpexbskoktwkr2k


Espero que disfruten el v?
Interesante, habra que ver, la verdad a mi no me gusto la pelicula el villano es debilucho y como siempre nunca lo matan ni siquiera le da un golpe nada de nada, parece mazoquismo de superman que siempre caiga en la misma rutina de la criptonita, porque no le pusieron a un rival poderoso como Darkside o algo que valga la pena ver la batalla....Se agradece el aporte..como curiosidad gracias.
me llamo mucho la atencion la descargare para ver k tal gracias por el aporte
Cita zeus1a: Mostrar
Espero que te guste un saludo.  
Buen aporte.
A m?
Cita sesdh: Mostrar
Ya la baje y la vi, buena calidad gracias por el aporte aumenta mas mis conocimientos de estas peliculas, no sabia el dato de que hicieron la movie pensando en la fresada o sex simbol, eso explica todo, absolutamente todo, te dire que por las escenas y el fondo me dio mas miedo esta escena del planeta destrozado y criptonita por todos lados que el resto de la peli, jejeje gracias de nuevo.
Cita zeus1a: Mostrar
Que bueno que te gusto, aprovecho para platicarles a todos los amigos de www.identi.com que realice un Fan edit de Superman Regresa en audio latino agregando algunas escenas y detalles, en este momento pesa 15 GB pero en cuando la codifique a un peso desente de uno o dos GB la subire a este padrisimo foro, un aludo.
pasa q superman es dc xD las de marvel son rre flasheras
Cita lowfire: Mostrar
Hola lowfire en mi ciudad no utilisamos esa palabra ?
flasheras q le ponen muchos efectos y queda rre bien la de superman como las otras pelis dc(linterna berde batman) estan ahi no se ven mucho wau.. en mi opinion a comparacion de las de marvel que (spiderman iron man..x-men ) es claramente otra cosa a eso iva..
Cita lowfire: Mostrar
Gracias por la aclaraci?
ahora por ti me entero que esta parte de la pelicula la sacaron aver y gracias
Interesante sale Bajar, Grax  
Cita voltaje: Mostrar
Ojala te guste voltaje un saludo kryptoniano.  

Cita jamett2: Mostrar
Gracias a ti jamett2 por darte un tiempo y visitae mi post espero tr guste  

Cita getter1: Mostrar
Un saludo kryptoniano getter1  
Muy interesante amigo descatgando  
interesante!!! aunque no lo pude ver pues el archivo fue borrado!! te agradeceria si lo volvieras a subir!!! gracias !!!
Cita diegoleon: Mostrar
Resubiendo el v?
Bajando! Se agradece!
Para dejar un comentario Registrate! o.. eres ya usuario? Accede!