Trailer DC Universe online HD CGI mp4 mediafire

  • Categoría: Comic
  • Publicado hace más de 4 años


Este es mi primer Post
Hola amigos de www.identi.li si eres fan del Universo DC comics te invito a descargar este emocionante cortometraje realizado completamente en CGI.
  Austin Jim Lee es el Director Creativo Ejecutivo  junto a Carlos D'Anda, JJ Kirby, Oliver Nome, Eddie Núñez, Livio Ramondelli, y Michael Lopez.
El desarrollador de EverQuest Chris Cao fue el director desde el lanzamiento hasta mayo de 2011, pero renunció para ser reemplazado por Mark Anderson, que anteriormente fue el director de arte. Shawn Lord también está involucrado.
Geoff Johns es el escritor principal .
El primer arte conceptual fue lanzado el 4 de julio de 2008, y el primer tráiler fue lanzado el 14 de julio de 2008.

Este es el trailer espero les guste tanto como a mi.

Informacion del video.
Format               : MPEG-4
Format profile           : Base Media / Version 2
Codec ID               : mp42
File size              : 92.0 MiB
Duration               : 6mn 9s
Overall bit rate mode      : Variable
Overall bit rate         : 2 086 Kbps
Encoded date             : UTC 2010-07-23 16:24:33
Tagged date            : UTC 2010-07-23 16:24:33
gsst                 : 0
gstd                 : 369840
gssd                 : BC834C502HH1280435266179473
gshh                 : v22.lscache6.c.youtube.com


Video
ID                   : 2
Format               : AVC
Format/Info            : Advanced Video Codec
Format profile           : [email protected]
Format settings, CABAC       : Yes
Format settings, ReFrames    : 1 frame
Codec ID               : avc1
Codec ID/Info            : Advanced Video Coding
Duration               : 6mn 9s
Bit rate               : 1 958 Kbps
Maximum bit rate         : 11.9 Mbps
Width                : 1 280 pixels
Height               : 720 pixels
Display aspect ratio       : 16:9
Frame rate mode          : Constant
Frame rate             : 25.000 fps
Color space            : YUV
Chroma subsampling         : 4:2:0
Bit depth              : 8 bits
Scan type              : Progressive
Bits/(Pixel*Frame)         : 0.085
Stream size            : 86.3 MiB (94%)
Title                : (C) 2007 Google Inc. v08.13.2007.
Encoded date             : UTC 2010-07-23 16:24:33
Tagged date            : UTC 2010-07-23 16:24:35


Audio               : Ingles
ID                   : 1
Format               : AAC
Format/Info            : Advanced Audio Codec
Format profile           : LC
Codec ID               : 40
Duration               : 6mn 8s
Bit rate mode            : Variable
Bit rate               : 126 Kbps
Maximum bit rate         : 229 Kbps
Channel(s)             : 2 channels
Channel positions          : Front: L R
Sampling rate            : 44.1 KHz
Compression mode         : Lossy
Stream size            : 5.52 MiB (6%)
Title                : (C) 2007 Google Inc. v08.13.2007.
Encoded date             : UTC 2010-07-23 16:24:33
Tagged date            : UTC 2010-07-23 16:24:35


CAPTURAS:









LINK DE DESCARGA
MEDIAFIRE
http://www.mediafire.com/?59406t2u26o2d3i
sin password
Si el link se cae háganlo saber y lo repondré gracias por visitar mi Post
Trailer DC Universe online HD CGI mp4 mediafire
0 Puntos Score: 0/10
Visitas: 1575 Favoritos: 2
15 Comentarios Trailer DC Universe online HD CGI mp4 mediafire
Ya lo vi y esta muy buena y mas la imagen  
este juego es bestial! lo amo soy muy fan de batman y aun mas del joker!
pero por desgracia tuve que desinstalarlo...
gracias por compartir.!
el link esta caido por fa arreglalo
Cita ecuajor: Mostrar
Hola ecuajor cheque el link y esta perfecto.  
http://www.mediafire.com/?59406t2u26o2d3i
ya lo vi muchas gracias x compartir.... no sabes cuando sale la peli o serie??
Esta bueno, no lo hab?
Cita facu_009: Mostrar
Hola facu_009 en este momento el proyecto mas cercano es una pel?
Cita Compiler: Mostrar
Cita jptg1974: Mostrar
gracias tranquilo ya esta todo bien
yo lo juego esta muy bueno pero tenes q tener una muy buena maquina con una muy buena placa de video
Ese juego esta gratis en la Store de PS3, asi que bajadlo porque ::it's free::
Por otro lado,el juego no me gusto mucho, pero gusto personal,pero si es un buen juego
Cita KiiX: Mostrar
Que bueno que les gusto _SAC_ y KiiX yo lo juego en Playstation 3 y esta genial  
Excelente el video...que ganas de ver una peli asi  
Cita raul_fce04: Mostrar
Si la pel?
maestro sigue asi con estos videos que estan fenomenales
Para dejar un comentario Registrate! o.. eres ya usuario? Accede!