the Bourne Identy y la 3 1080 m2ts Español latino.

the Bourne Identy 1080p m2ts Español latino.





Dirección: Doug Liman.
País: USA.Año: 2002.
Duración: 118 min.
Interpretación: Matt Damon (Jason Bourne), Franka Potente (Marie St. Jacques), Chris Cooper (Conklin), Clive Owen (El Profesor), Brian Cox (Ward Abott), Adewale Akinnuoye-Agbaje (Wombosi), Gabriel Mann (Zorn), Julia Stiles (Nicolette), Orso Maria Guerrini (Giancarlo), Tim Dutton (Eamon), Denis Braccini (Picot)Guión: Tony Gilroy y William Blake Herron;
basado en la novela de Robert Ludlum.
Producción: Patrick Crowley, Richard N. Gladstein y Doug Liman.
Producción ejecutiva: Frank Marshall y Robert Ludlum.Música: John Powell.
Fotografía: Oliver Wood.Montaje: Saar Klein.
Diseño de producción: Dan Weil.Dirección artística: Laurent Piron, Bettina Von den Steinen.Vestuario: Pierre-Yves Gayraud.
Estreno en España: 8 Noviembre 2002.
sinopsis:
Al comienzo de la historia, un hombre amnésico (Matt Damon) es rescatado por la tripulación de un barco pesquero italiano cuan-do flota a la deriva en el mar. No lleva nada consigo, sólo las balas que tiene clavadas en la espalda y un número de cuenta de un banco suizo que lleva adherido a la cadera. Carece de identidad y de pasado, pero posee una serie de talentos extraordinarios en artes linguísticas, marcia-les y de auto-defensa que sugieren una profesión de alto riesgo.
detalles :
  GeneralID          : 1 (0x1)Format          : BDAVFormat/Info       : Blu-ray VideoFile size        : 3.99 GiBDuration         : 1h 58mnOverall bit rate       : 4 834 KbpsMaximum Overall bit rate   : 35.5 MbpsVideoID          : 4113 (0x1011)Menu ID         : 1 (0x1)Format          : AVCFormat/Info       : Advanced Video CodecFormat profile      : [email protected] settings, CABAC    : YesFormat settings, ReFrames    : 3 framesFormat settings, GOP     : M=4, N=57Codec ID         : 27Duration         : 1h 58mnBit rate mode      : VariableBit rate         : 4 168 KbpsMaximum bit rate       : 25.0 MbpsWidth          : 1 920 pixelsHeight          : 1 080 pixelsDisplay aspect ratio     : 16:9Frame rate        : 23.976 fpsColor space       : YUVChroma subsampling      : 4:2:0Bit depth        : 8 bitsScan type        : ProgressiveBits/(Pixel*Frame)      : 0.084Stream size       : 3.51 GiB (88%)Writing library       : x264 core 114 r1924 AudioID          : 4352 (0x1100)Menu ID         : 1 (0x1)Format          : AC-3Format/Info       : Audio Coding 3Mode extension      : CM (complete main)Codec ID         : 129Duration         : 1h 58mnBit rate mode      : ConstantBit rate         : 384 KbpsChannel(s)        : 6 channelsChannel positions      : Front: L C R, Side: L R, LFESampling rate      : 48.0 KHzBit depth        : 16 bitsCompression mode       : LossyStream size       : 325 MiB (8%)












the Bourne Ultimatum 1080p m2ts Español latino.





SINOPSIS    Tercera y última entrega de las aventuras del agente Jason Bourne, que sigue investigando quién es y qué hay realmente detrás del programa secreto de la CIA llamado Treadstone. Un reportero británico de "The Guardian" le pone sobre una nueva pista facilitándole el nombre de Blackbriar. Bourne dará con él en Londres, en un intento de encajar las últimas piezas de ese pasado que él aún intenta recuperar. (FILMAFFINITY)



subiendo nuevos links !!! esperen un poko !!
the Bourne Identy y la 3 1080 m2ts Español latino.
0 Puntos Score: 0/10
Visitas: 2507 Favoritos: 5
13 Comentarios the Bourne Identy y la 3 1080 m2ts Español latino.
no hay como descargas r
al cliclear el link de descarga se redicciona a una pagina que nada tiene que ve
Cita ABOGADEITO: Mostrar
cierto fue un error mio pero conprendan es mi primer post
al raton k suba la parte 3 espero kde mejor k la primera gracias!
muchisimas gracias recien termine de descargarla, la cheke y esta de 10, ahora voy con la 2, saludos desde veracruz, mexico...
Cita vandyken: Mostrar
en 2 horas checas en link de la parte 11 de ultimatun me dicen k marca error ena hora lo pongo o si lo pudiste descomprimir avisame !!
Gran aporteee men descargandoo no tienes la de la Supremacia Bourne
Cita JoseZam: Mostrar
si la tengo pero hasta la otra semana voy a tener tiempo de subirla !
como por el jueves devido al jale no tengo kasi tiempo pero si la posteare !
Hola nuevamente muchas gracias por tus aportes... solo una observaci?
Falttaaa la partee 11 de  Ultimatum gracias
Que paso con los links  y clave de estas peliculas .... las baje y quiero descomprimirlas y no hay nada XD
@xeca_efe_u cuando fallaron los links les dije k pondria nuevos links pero como no son enchiladas  y tardan como 20 horas en subir los link y aveces no hay tiempo o falla la subida por eso no los e publiado asi k para la otra semana los pondre ya k termine por k esta semana tengo mucho trabajao y no tendre tiempo de subirlos !
@eletor19 entonces subiras esta trilogia desde cero ?
CUAS ES LA PASS DE LA PRIMERA...
Para dejar un comentario Registrate! o.. eres ya usuario? Accede!