viaje 2 la isla misteriosa [dvd-rip subtitulada]

viaje 2 la isla misteriosa [dvdrip]














comienza cuando Sean Anderson recibe una señal codificada pidiendo ayuda. Incapaz de detenerle en su búsqueda del origen de la señal, el nuevo padrastro de Sean, Hank, se une a él en una expedición que primero les llevará al Pacífico Sur y luego a un lugar que pocas personas han visto o han vivido para contarlo. Se trata de un sitio de increíble belleza, con extrañas y amenazadoras formas de vida, volcanes, montañas de oro y más de un secreto impactante. Junto con Gabato, el único piloto de helicópteros dispuesto a asumir el riesgo del viaje, y la hermosa y decidida hija de Gabato, Kailani, parten en busca de la isla. ?Viaje al centro de la Tierra 2: La isla misteriosa? cuenta también con la presencia de Michael Caine en el papel del abuelo de Sean, Alexander, el viajero solitario al que han acudido a buscar, y con Kristin Davis como la madre de Sean, Liz....





General
Complete name          : C:UsersdanyelDesktoppostsvct2.danyel_6.avi
Format            : AVI
Format/Info         : Audio Video Interleave
File size          : 698 MiB
Duration           : 1h 34mn
Overall bit rate mode      : Variable
Overall bit rate         : 1 035 Kbps
Writing application       : VirtualDubMod 1.5.10.2 (build 2540/release)
Writing library         : VirtualDubMod build 2540/release


Video
ID            : 0
Format            : MPEG-4 Visual
Format profile          : Advanced [email protected]
Format settings, BVOP      : 2
Format settings, QPel      : No
Format settings, GMC       : No warppoints
Format settings, Matrix       : Default (MPEG)
Codec ID           : XVID
Codec ID/Hint          : XviD
Duration           : 1h 34mn
Bit rate           : 896 Kbps
Width            : 640 pixels
Height            : 352 pixels
Display aspect ratio       : 16:9
Frame rate          : 23.976 fps
Color space         : YUV
Chroma subsampling        : 4:2:0
Bit depth          : 8 bits
Scan type          : Progressive
Compression mode         : Lossy
Bits/(Pixel*Frame)        : 0.166
Stream size         : 605 MiB (87%)
Writing library         : XviD 64


Audio
audio original subtitulos en español latino
ID            : 1
Format            : MPEG Audio
Format version          : Version 1
Format profile          : Layer 3
Mode             : Joint stereo
Codec ID           : 55
Codec ID/Hint          : MP3
Duration           : 1h 34mn
Bit rate mode          : Variable
Bit rate           : 128 Kbps
Channel(s)          : 2 channels
Sampling rate          : 48.0 KHz
Compression mode         : Lossy
Stream size         : 85.0 MiB (12%)
Alignment          : Aligned on interleaves
Interleave, duration       : 24 ms (0.58 video frame)
Interleave, preload duration     : 146 ms
Writing library         : LAME3.90.
Encoding settings        : -m j -V 4 -q 2 -lowpass 17.6 --abr 128



























http://www.identi.li



viaje 2 la isla misteriosa [dvd-rip subtitulada]
10 Puntos Score: 10/10
Visitas: 1607 Favoritos: 0
Ver los usuarios que votaron...
14 Comentarios viaje 2 la isla misteriosa [dvd-rip subtitulada]
en que idioma esta bro??
que idioma esta o es subtitulada  
Si, yo tambien me he quedao ciego buscando el idioma.  
segun el post es subtitulada eso quiere decir que esta en gallego y trae subtitulos en frances jojojojojojo
@kalimans @issue2b @kblackstar @vancarl disculpen por el error esta en audio original con subtitulos en espa?
Cita danyel_6: Mostrar
Gracias por el titulo insisto seria bueno desde el origen del post saber el idioma
@danyel_6 Gracias por tu interes, como puedes comprobar somos muy rega?
@issue2b no hay problema amigo asi se aprende a no dejar pasar el mas minimo detalle por cierto estoy resubiendo los links ya que me cerraron la cuenta por segunda ocasion espero sepan comprender  ahora usare putlocker para los estrenos
Buff, a mi tambien me han cerrado la cuenta de Mediafire, y por lo que estoy viendo muchas webs con posts les esta pasando lo mismo, se avecinan malos tiempos.  

Reacci?
vale compadre! +10 te lo mereces!
Para dejar un comentario Registrate! o.. eres ya usuario? Accede!