matando cabos [dvd-rip latino][2004]

matando cabos [dvd-rip latino][2004]














En el transcurso de una noche, dos jóvenes amigos, Jaque y Mudo, viven una aventura insólita: tienen que encontrar la manera de que su jefe, Óscar Cabos, un temible magnate y padre de Paulina, novia de Jaque, regrese sano y salvo a su casa, ya que por extrañas circunstancias? se encuentra encerrado en el capot de su coche. Paralelamente, Botcha y su amigo Nico intentan secuestrar al magnate Cabos con intenciones de pedir una gran suma de dinero como rescate y vengar el pasado humillante del padre de Botcha. Sin embargo, en la oscuridad existe una confusión de cuerpos y los planes fallan para los buenos, los malos y los feos.







General
Complete name          : matando cabos.avi
Format            : AVI
Format/Info         : Audio Video Interleave
File size          : 700 MiB
Duration           : 1h 38mn
Overall bit rate         : 996 Kbps
Writing application       : Nandub v1.0rc2
Writing library         : Nandub build 1853/release


Video
ID            : 0
Format            : MPEG-4 Visual
Format profile          : [email protected]
Format settings, BVOP      : 2
Format settings, QPel      : No
Format settings, GMC       : No warppoints
Format settings, Matrix       : Default (H.263)
Codec ID           : XVID
Codec ID/Hint          : XviD
Duration           : 1h 38mn
Bit rate           : 854 Kbps
Width            : 576 pixels
Height            : 432 pixels
Display aspect ratio       : 4:3
Frame rate          : 29.970 fps
Color space         : YUV
Chroma subsampling        : 4:2:0
Bit depth          : 8 bits
Scan type          : Progressive
Compression mode         : Lossy
Bits/(Pixel*Frame)        : 0.115
Stream size         : 600 MiB (86%)
Writing library         : XviD 1.0.2 (UTC 2004-08-29)


Audio
ID            : 1
Format            : MPEG Audio
Format version          : Version 1
Format profile          : Layer 3
Mode             : Joint stereo
Mode extension          : MS Stereo
Codec ID           : 55
Codec ID/Hint          : MP3
Duration           : 1h 38mn
Bit rate mode          : Constant
Bit rate           : 128 Kbps
Channel(s)          : 2 channels
Sampling rate          : 48.0 KHz
Compression mode         : Lossy
Delay relative to video       : 8ms
Stream size         : 90.0 MiB (13%)
Alignment          : Aligned on interleaves
Interleave, duration       : 24 ms (0.72 video frame)
Interleave, preload duration     : 504 ms
Writing library         : LAME3.93 (alpha)

























http://www.identi.li



matando cabos [dvd-rip latino][2004]
0 Puntos Score: 0/10
Visitas: 1876 Favoritos: 2
11 Comentarios matando cabos [dvd-rip latino][2004]
gracias bro tendras mas como estas.
dijo mexicanas perronas como el crimen del padre amaro,amores perros,nicotina y de esas?
@djmasterf5 las que voy consiguiendo las ire posteando pero sera tardado porque me bloquearon mi cuenta de mediafire asi que hice otra y aparte los respaldare con putlocker va a ser mucho trabajo para subir de nuevo todo espero me comprendas
hey man lo descargue y me dice esto........ ERROR EXTRACTING THE SELECTED OBJECT. IF THE ARCHIVE IS PASSWORD PROTECTED PLEASE PROVIDE IT que puedo hacer???
estas poniendo bien la contrase?
@danyel_6 si amigo pongo la contrase?
@calili1989 puede ser porque ya la probe y funciona al 100 porque eres el unico con este problema
 intenta descargarlas de nuevo pero borra las que ya bajastes porque te va amarcar error
podrias ayudarme con el archivo de la segunda parte esta caido, ya baje los demas solo me falta ese gracias
links caidos ayuda necesito la peli
 
Para dejar un comentario Registrate! o.. eres ya usuario? Accede!