Oops.. Este post tiene los enlaces eliminados!

Identi revisa las denuncias de los usuarios en busca de enlaces eliminados que no dejan descargar los archivos, este mensaje te informa que este post que estas viendo tiene los enlaces eliminados.

Usa el Buscador

Por favor, te recomendamos que uses el buscador para encontrar más alternativas.

Prince Royce - Vi?a del Mar 2012 [720p][LRF2]

  • Categoría: Reciclaje
  • Publicado hace más de 4 años


Bienvenidos a este nuevo aporte Identikeros...


En esta ocasión les traigo el concierto de Prince Royce en Viña del Mar 2012, uno de los artistas en ascenso en el género de la bachata, uno de los mejores a mi parecer...


El vídeo esta en formato .MP4 y con una calidad perfecta de 1280p x 720p...


Espero que lo disfruten...




Prince Royce - Viña del Mar 2012











Datos Generales


- Nacimiento: 11 de mayo de 1989

- Lugar: Bronx, Nueva York, Estados Unidos

- Ocupación: Cantante, compositor, productor discográfico, músico.


Información Artística


- Género(s): Bachata, pop latino, R&B

- Instrumento(s): Guitarra, voz

- Período de actividad: 2009-presente

- Discográfica(s): Top Stop Music, Atlantic Records

- Artistas relacionados: Daddy Yankee, Maná

Prince Royce en Viña del Mar 2012

En la madrugada, el cantante Prince Royce se presentó con un despliegue de imágenes de sus anteriores actuaciones. Con un grupo de 10 músicos cantó ?Su hombre soy yo?, dedicándolo con unas palabras al público, que lo escuchaba entre aplausos.


El jurado y los espectadores bailaron al ritmo de la bachata ?El amor que perdimos? y ?Te me vas?.


El cantante coreó un ?Chi, chi, chi, ..Chile?, con respuesta al unísono del público, seguido de la canción de ?Tu y Yo?.


Estrenó su canción ?Incondicional? con mariachis y cantó una canción en inglés sin ritmo tropical que dejó al público en suspenso y un profundo ensueño.


Retornó a su ritmo tropical con ?Corazón sin cara?, ?Recházame? y la fiesta al puro sabor de bachata
que se prolongó aún después de finalizar la transmisión televisiva a las 3 de la mañana.


Con ?Las cosas pequeñas?, adelantó otra canción de su próximo disco. Presentó ?El verdadero amor perdona? que cantó tradicionalmente con Maná y se despidió con ?Corazón sin cara?.

Datos de la Descarga


- Formato de la Descarga: .__a
- Contenedor del Archivo: .ZIP
- Nombre de la Video:  Prince Royce en Viña del Mar 2012

- Nombre del Archivo: MO-A10-PR-VÑM2012.mp4

- Formato: .MP4

- Tamaño: 1.37 GB

- Duración  : 1h 2mn

- Ancho del Video: 1.280 pixels
- Alto del Video: 720 pixels

- Audio  : AAC

- Idioma: Español e ingles

- Subtitulos: No requiere

Detalles del Archivo

General


Complete name : MO-A10-PR-VÑM2012.mp4
Format    : MPEG-4
File size  : 1.37 GiB
Duration   : 1h 2mn
Overall bit rate    : 3 136 Kbps


Video

Format    : AVC
Format/Info : Advanced Video Codec
Duration   : 1h 2mn
Bit rate   : 2 982 Kbps
Maximum bit rate    : 6 071 Kbps
Width    : 1 280 pixels
Height    : 720 pixels
Display aspect ratio  : 16:9
Frame rate mode    : Constant
Frame rate  : 29.970 fps
Stream size : 1.30 GiB (95%)


Audio


Format    : AAC
Format/Info : Advanced Audio Codec
Duration   : 1h 2mn
Bit rate mode : Variable
Bit rate   : 152 Kbps
Maximum bit rate    : 187 Kbps
Channel(s)  : 2 channels
Channel positions   : Front: L R
Sampling rate : 44.1 KHz
Compression mode    : Lossy
Stream size : 68.0 MiB (5%)









Enlaces De Descarga
- Instrucciones:


1. Descargar los archivos y guardar en una carpeta a conveniencia, unir las partes con algún programa compatible con archivos .__A (Hacha, HJSplit, etc.), no se asusten si no reconocen el formato .001, el formato .__A es es mismo solo que encriptado, si tienen problemas con la unión de los archivos usen File Spliter & Joiner (v3.3).

2. El resultado será un archivo .ZIP, decomprimir el archivo y listo, tendran un archivo .DAT con el video.

3. Debido a que una de mis cuentas en Mediafire fué suspendida he agregado un nuevo detalle a mis métodos de seguridad, al descomprimir el archivo .ZIP como resultado verán un archivo .DAT, entre otras cosas, este archivo es el video, cambiar la extensión .DAT y colocar .MP4.


- Nota: En total son: 10 partes (9 de 200.00 MB; 1 de 2.00 MB).


Link de Descarga

http://www.mediafire.com/?wt1l680bey7nl




www.identi.li/LRF2


Prince Royce - Vi?a del Mar 2012 [720p][LRF2]
5 Puntos Score: 5/10
Visitas: 1548 Favoritos: 2
Ver los usuarios que votaron...
9 Comentarios Prince Royce - Vi?a del Mar 2012 [720p][LRF2]
Buen aporte amigo  
@GhoosT Gracias por comentar y los puntos, se aprecian, jeje...
gracias tendras otros conciertos por si acaso?
oye el File Spliter & Joiner (v3.3). me pide un pass?? que le pongo?
Disculpa no vi la contrase?
buenisima por favor sigue subiendo posts asi jeje , saludos
Te hago una pregunta, porque sinceramente no entiendo, y ya proble varios desompresores y nada, como hago para que me quede el archivo de video?? Gracias
@leon78el Hermano esta todo explicado paso a paso en las instrucciones que dej?
Para dejar un comentario Registrate! o.. eres ya usuario? Accede!