Oops.. Este post tiene los enlaces eliminados!

Identi revisa las denuncias de los usuarios en busca de enlaces eliminados que no dejan descargar los archivos, este mensaje te informa que este post que estas viendo tiene los enlaces eliminados.

Usa el Buscador

Por favor, te recomendamos que uses el buscador para encontrar más alternativas.

X-MEN 3 [BDrip][1080p][Dual]

  • Categoría: Reciclaje
  • Publicado hace más de 4 años
X-MEN 3 [BDrip][1080p][Dual]














X-Men: The Last Stand es una película de superhéroes de 2006 y es el tercer largometraje de la serie X-Men. Fue dirigida por Brett Ratner y protagonizada por Hugh Jackman, Halle Berry, Patrick Stewart, Ian McKellen, Famke Janssen, Kelsey Grammer, Anna Paquin, Shawn Ashmore, Aaron Stanford, Vinnie Jones, Rebecca Romijin y James Marsden.


SINOPSIS


En la actualidad, la empresa Laboratorios Worthington anuncia que ha desarrollado en su laboratorio en la isla de Alcatraz una inoculación para suprimir el gen mutante. Mientras que algunos mutantes están interesados en la cura, como Rogue de los X-Men, muchos se aterrorizan por el anuncio. En respuesta a la noticia, Magneto planea un ejército, advirtiendo a sus seguidores que la "cura" es la fuerza para exterminar a la raza mutante.
Cíclope, aún deprimido por la pérdida de Jean Grey, vuelve al lago Alkali. Jean aparece con Cíclope, pero a medida que se besan, Jean adquiere un aspecto temible. Gracias a la detección psiquica de problemas, Xavier envía a Wolverine y a Tormenta para investigar. Cuando llegan, los dos X-Men encuentran rocas flotando telepáticamente, las gafas de Cíclope y a una inconsciente Jean, pero Cíclope no está en ninguna parte. Xavier explica que cuando Jean se sacrificó, se dasató la poderosa personalidad alterna llamada "Fénix". Wolverine se disgusta al enterarse de que Xavier ha mantenido en jaque a Jean telepáticamente, pero cuando Jean despierta, se da cuenta de que no es la Jean Grey que conocía. Jean le suplica a Wolverine que la mate, pero cuando él se niega, Fénix despierta y golpea a Wolverine, antes de escapar a su casa de la infancia.


Audio: Español Latino-Ingles con subtitulos


FICHA TECNICA


Complete name      : E:X-MEN 3.mkv
Format          : Matroska
Format version      : Version 2
File size        : 2.20 GiB
Duration         : 1h 44mn
Overall bit rate       : 3 021 Kbps
Encoded date       : UTC 2010-12-14 18:14:39
Writing application     : mkvmerge v3.2.0
Writing library       : libebml v0.7.9 + libmatroska v0.8.1


Video
ID          : 1
Format          : AVC
Format/Info       : Advanced Video Codec
Format profile      : [email protected]
Format settings, CABAC    : Yes
Format settings, ReFrames    : 2 frames
Codec ID         : V_MPEG4/ISO/AVC
Duration         : 1h 44mn
Bit rate         : 2 065 Kbps
Width          : 1 920 pixels
Height          : 832 pixels
Display aspect ratio     : 2.35:1
Frame rate        : 23.976 fps
Color space       : YUV
Chroma subsampling      : 4:2:0
Bit depth        : 8 bits
Scan type        : Progressive
Bits/(Pixel*Frame)      : 0.054
Stream size       : 1.50 GiB (68%)
Writing library       : x264 core 79


Audio #1
ID          : 2
Format          : AC-3
Format/Info       : Audio Coding 3
Mode extension      : CM (complete main)
Codec ID         : A_AC3
Duration         : 1h 44mn
Bit rate mode      : Constant
Bit rate         : 448 Kbps
Channel(s)        : 6 channels
Channel positions      : Front: L C R, Side: L R, LFE
Sampling rate      : 48.0 KHz
Bit depth        : 16 bits
Compression mode       : Lossy
Stream size       : 334 MiB (15%)
Language         : English


Audio #2
ID          : 3
Format          : AC-3
Format/Info       : Audio Coding 3
Mode extension      : CM (complete main)
Codec ID         : A_AC3
Duration         : 1h 44mn
Bit rate mode      : Constant
Bit rate         : 448 Kbps
Channel(s)        : 6 channels
Channel positions      : Front: L C R, Side: L R, LFE
Sampling rate      : 48.0 KHz
Bit depth        : 16 bits
Compression mode       : Lossy
Stream size       : 334 MiB (15%)
Language         : Spanish



























Mr_Movies
X-MEN 3 [BDrip][1080p][Dual]
15 Puntos Score: 5/10
Visitas: 1863 Favoritos: 6
Ver los usuarios que votaron...
26 Comentarios X-MEN 3 [BDrip][1080p][Dual]
En.......Video
Width          : 1 920 pixels
Height          : 832 pixels..................Podriamos decir q alfinal esta en 720p  NO en 1080p  (lla q seria ...1920 x1080p)    ...igual  la intencion es la q cuenta .
@jerson x no es 720 es 1080 con linea negras ,este es sin lines por lo tanto queda 832,gracias por la visita
1080p=1920x1080 con linea negras horinzotales  o
1080p=1920x 832 sin lineas negras (este es el mio)  
Muy buena calidad de audio y video gracias!!!
Muy buen aporte, gracias por compartir. Saludos
amigo una sugerencia, divide o corta con hj-split ya que con winrar se corrompe el archivos.  gran aporte espero sigas subiendo  
Vaya, muy agradecido, reconosco tu trabajo, y esfuerzo, espero sigas sorprendiendo con mas aportes , relevantes, Salud Master
tienes las dos primeras ?
@kof_albe  tengo la 1ra usa el buscador,gracias por la visita
Bueno el aporte amigo, gracias.
escribo la contrase?
@gumercindo01 escribe pas pass manualmente tal y como se muestra arriba todo esta ok....
ok amigo pero cuando llega a la parte 5 me dice error fichero da?
@gumercindo01 descargalo otra vez esa parte a mi tmb me paso una parte da?
cuenta suspendida!!!!!!
ok gracias la volvere a bajar.....
vuelvela a subir....
COMPADRE EL LINK ESTA CAIDO , PUEDES SUBIRLO , X FA , GRACIAS
link caidos, se volveran a subir?
AMIGO SE TE AGRADECERIA QUE VOLVIERAS A SUBIR LOS LINKS PORQUE ESTAN CAIDOS, DE TODAS MANERAS EXCELENTE POST
me falta esta, volveras a subir links. se te agradece
@davidvilla a pedido de muchos la volvere a subir en putlocker y jumbo
resubela porfa  
cuando la volveras a subir , ya k me faltaron las ultimas partes
Para dejar un comentario Registrate! o.. eres ya usuario? Accede!