Oops.. Este post tiene los enlaces eliminados!

Identi revisa las denuncias de los usuarios en busca de enlaces eliminados que no dejan descargar los archivos, este mensaje te informa que este post que estas viendo tiene los enlaces eliminados.

Usa el Buscador

Por favor, te recomendamos que uses el buscador para encontrar más alternativas.

The Yellow Sea 2010 BRRip 720p Audio Dual [Korea]

  • Categoría: Reciclaje
  • Publicado hace más de 4 años
Este post ya lo había puesto pero se perdió en estos días así que si alguien se quedo a la mitad de la descarga o algo así aquí esta otra ves.



Segunda pelicula del director de The Chaser Na Hong-Jin, en The Yellow Sea el director dice haberse inspirado en films de Quentin Tarantino.

Cita: Mostrar






La película está ambientada en la ciudad de Yanji, entre Corea del Norte, China y rusia, donde actualmente la mitad de la población vive de actividades ilegales y son explotados por las mafias, llegando a hacer cualquier cosa por sobrevivir.

Allí conocemos al protagonista, un taxista llamado Gu-nam  (HA Jung-Woo) que malvive intentando pagar la deuda que contrajo con la mafia que permitió a su mujer viajar a Corea del Sur en busca de una vida mejor.

Desesperado, decide aceptar la oferta de un jefe mafioso, Myun (Kim Yun-Seok), para que asesine a una persona.

Por supuesto, las cosas se complican de tal forma que Gu-Nam se ve envuelto en un desastre de proporciones épicas, siendo perseguido por la policía y varios grupos de yakuzas, mientras intenta reunirse con su esposa. Una huída que acaba convirtiéndose en un baño de sangre.



Ficha Tecnica:

Titulo: The Yellow Sea
Titulo (Romanizada):: Hwang Hae
Titulo (Hangul): ??
Director: Na Hong-Jin
Escritor: Na Hong-Jin
Productor: Han Sung-Goo, Kim Kyung-Hwan, Jung Dae-Hoon, Kim Ui-Suk
Fecha de estreno: Diciembre 22, 2010
Duracion : 156 min.
Compañia de Produccion: Popcorn Film, 20th Century Fox
Distribuidor: Showbox/Mediaplex
Idioma: Hangul
Pais: Corea del sur

Protagonistas:

Ha Jung-Woo - Ku-Nam
Kim Yun-Seok - Myung-Ga
Jo Sung-Ha - Tae-Won

Otros actores:

Lee Cheol-Min
Kwak Byung-Kyu
Lim Yeo-Won
Tak Sung-Eun
Kim Ki-Hwan
Ki Se-Hyung
Lee El - Joo-Young
Oh Yoon-Hong
Jeong Man-Sik
Jung Min-Sung
Kim Dong-Hyun
Park Byeong-Eun
Jang So-Yeon
Yang Ki-Won
Seong Byeong-Suk
Kong Jeong-Hwan
Baek Won-Gil
Kang Hyun-Joong
Yoo Ha-Bok
Lee Hee-Joon

Premios

2011 (5) Asian Film Awards - 21 de marzo de 2011
"Mejor Actor" (Ha Jung-woo)
2011 (47th) PaekSang Arts Awards - 26 de mayo de 2011
"Mejor Actor" (Ha Jung-woo)
2011 (15) Puchon Festival Internacional de Cine Fantástico - 14 hasta 24 julio, 2011
"Mejor Director" de Na Hong-Jin
2011 (44) Festival de Cine de Sitges - 6 a 16 oct 2011
"Mejor Director" de Na Hong-Jin
2011 (48) Daejong Film Awards - 17 de octubre de 2011
"Mejor actor de reparto" (Jo Sung-Ha)
"Mejor Diseño de Vestuario"
2011 (31) Critics Choice Awards - 30 de octubre de 2011
"Mejor Actor" (Ha Jung-woo)
2011 (32 ª) Blue Dragon Film Awards - 25 de noviembre de 2011
"Mejor Iluminación"

Archivo:
En realidad son 3 idiomas (Español castellano, Coreano y Ruso) solo que no sabia como ponerlo en el titulo.

    Format : Matroska
    File size : 2.99 GiB
    Duration : 2h 20mn
    Overall bit rate : 3 045 Kbps
    Movie name : The yellow sea m-720p.
Video #1
    ID : 1
    Format : AVC
    Format/Info : Advanced Video Codec
    Format profile : [email protected]
    Format settings, CABAC : Yes
    Format settings, ReFrames : 4 frames
    Format settings, GOP : M=1, N=17
    Codec ID : V_MPEG4/ISO/AVC
    Duration : 2h 20mn
    Bit rate : 2 300 Kbps
    Width : 1 280 pixels
    Height : 536 pixels

    Display aspect ratio : 2.40:1
    Frame rate : 24.000 fps
    Color space : YUV
    Chroma subsampling : 4:2:0
    Bit depth : 8 bits
    Scan type : Progressive
    Bits/(Pixel*Frame) : 0.140
    Stream size : 2.19 GiB (73%)
    Title : The yellow sea m-720p.guerrero36
    Writing library : x264 core 120 r2164 da19765

   Audio #2
    ID : 2
    Format : AC-3
    Format/Info : Audio Coding 3
    Mode extension : CM (complete main)
    Codec ID : A_AC3
    Duration : 2h 20mn
    Bit rate mode : Constant
    Bit rate : 384 Kbps
    Channel(s) : 6 channels

    Channel positions : Front: L C R, Side: L R, LFE
    Sampling rate : 48.0 KHz
    Bit depth : 16 bits
    Compression mode : Lossy
    Delay relative to video : 4ms
    Stream size : 386 MiB (13%)
    Language : Spanish (Castellano)

   Audio #4
    ID : 4
    Format : AC-3
    Format/Info : Audio Coding 3
    Mode extension : CM (complete main)
    Codec ID : A_AC3
    Duration : 2h 20mn
    Bit rate mode : Constant
    Bit rate : 256 Kbps
    Channel(s) : 6 channels

    Channel positions : Front: L C R, Side: L R, LFE
    Sampling rate : 48.0 KHz
    Bit depth : 16 bits
    Compression mode : Lossy
    Delay relative to video : 4ms
    Stream size : 257 MiB (8%)
    Language : Korean

   Audio #5
    ID : 5
    Format : AC-3
    Format/Info : Audio Coding 3
    Format profile : Dolby Digital
    Mode extension : CM (complete main)
    Codec ID : A_AC3
    Duration : 2h 20mn
    Bit rate mode : Constant
    Bit rate : 112 Kbps
    Channel(s) : 2 channels

    Channel positions : Front: L R
    Sampling rate : 48.0 KHz
    Bit depth : 16 bits
    Compression mode : Lossy
    Stream size : 113 MiB (4%)
    Language : Russian

   Text #3
    ID : 3
    Format : UTF-8
    Codec ID : S_TEXT/UTF8
    Codec ID/Info : UTF-8 Plain Text
    Language : Spanish

   Text #6
    ID : 6
    Format : UTF-8
    Codec ID : S_TEXT/UTF8
    Codec ID/Info : UTF-8 Plain Text
    Language : English



Dale clic a las imagenes y las veras en el tamaño original 1280x536














Enlaces De Descarga


http://www.mediafire.com/?lp5lu71ezmwal9e
Añadir extencion .txt para ver los links

Contraseña: sper91
Cualquier problema con los enlaces no dudes en comentar



                                                                  Importante                                                                  

Los archivos fueron divididos y encriptados con File Splitter and Joiner (Descarga) , asi que hay que unirlos y cambiar el nombre del archivo ya unido, que en este caso es "ThYwSa_rarO" hay que cambiarlo por "ThYwSa.rar" despues lo descomprimen con winrar.

Les dejo esta pequeña guia online con algunas capturas (Clic Aqui)








The Yellow Sea 2010 BRRip 720p Audio Dual [Korea]
3 Puntos Score: 3/10
Visitas: 1945 Favoritos: 3
Ver los usuarios que votaron...
13 Comentarios The Yellow Sea 2010 BRRip 720p Audio Dual [Korea]
que buen aporte ya me la baje de otro lado
 pero ya esta haciendo mucho ruido esta peli y muchos la aconsejan
 todavia no tube tiempo para verla
 pero con lo que se oye debe estar buenisima gracias por el aporte
LASTIMA FUERA DE LINEA AMIGO DE TODAS MANERAS GRACIAS
@4926181 Gracias por pasar amigo, si es muy buena pelicula altamente recomendable  

@-franky- el formato avi ya es un formato obsoleto el mkv tiene mayor calidad de video ojala y te animes a descargarla Gracias por pasar y comentar  


@HYAKIMARU re-subida amigo gracias por pasar y comentar  

:party:
OK GRACIAS AMIGO POR TOMARTE LA MOLESTIA DE RESUBIRLA EN TAN POCO TIEMPO  
Obsoleto o no, el mkv no lo lee el reproductor de dvd casero y no se si alg?
pues el bluray samsumg modelo BD5300 que es el que tengo yo si lo lee y lo recomiendo ampliamente lee tambien mp4, avi, mkv, wmv asi que lo recomiendo ampliamente para el que busque un reproductor que lea estos formatos....
Mi dvd tambien va como pi?
@-franky- @HYAKIMARU @pedromaximil No lograba recordar el nombre de estos aparatos siendo tan simple jaja se llaman player o reproductores dejo un enlace a mercado libre y checan que tal Reproductor de video Hd Disco duro externo yo seria infinitamente feliz con esto en mi poder  pero de momento me enfocare en DD que ya me hace falta espacio. Siendo @HYAKIMARU y @-franky- de mexico, bueno usds saben donde se consiguen las cosas baratas (Tepito)

Saludos.
DISCULPA AMIGO TENDRAS LOS SUBTITULOS EN EN EXTENSION STR.  PARA ESTA PELICULA ES QUE ME LA QUIERO PASAR A  DVD ( o sea subtitulos sueltos )  
@HYAKIMARU mm borre ayer el archivo jeje pero checa que tal le van estos, son subtitulos para 3 diferentes versiones http://subs.asia-team.net/file.php?id=9398

en el coment de arriba (el mio) el link del reproducto esta mal este es el que queria poner Reproductor HD
Me recomendaron mucho esta pel?
pedaso the pelicula!!
Para dejar un comentario Registrate! o.. eres ya usuario? Accede!