Oops.. Este post tiene los enlaces eliminados!

Identi revisa las denuncias de los usuarios en busca de enlaces eliminados que no dejan descargar los archivos, este mensaje te informa que este post que estas viendo tiene los enlaces eliminados.

Usa el Buscador

Por favor, te recomendamos que uses el buscador para encontrar más alternativas.

The Chaser (2008) BR-Rip 720p [Korea]

  • Categoría: Reciclaje
  • Publicado hace más de 4 años
Este post ya lo había puesto pero se perdió en estos días así que si alguien se quedo a la mitad de la descarga o algo así aquí esta otra ves.



Thiller coreano que se colocó en el Top de las películas más taquilleras de la historia del país.

Muy buena pelicula, experimente varias emociones al verla, me hizo odiar de principio a fin a los protagonistas uno por su total falta de moral y el otro por simplemente perderla. Altamente recomendable.





?The Chaser? cuenta la historia de Eom Joong-ho, un ex detective metido a proxeneta que empieza a ver como las chicas que trabajan para él desaparecen poco a poco sin dejar rastro. Un día, para atender a un cliente, envía a la única chica que le queda, que está enferma, y descubre que el cliente es el último que visitaron las chicas desaparecidas. Convencido de que es alguien de la competencia que le está robando a sus mujeres, intenta tenderle una trampa, adentrándose sin querer en un juego de caza de un asesino en serie.



Ficha tecnica

Titulo: The Chaser
Titulo (Hangul): ???  
Titulo (Romanizada): Chugyeogja  
Director: Na Hong-Jin  
Escrito: Hong Won-Chan, Lee Shinho, Na Hong-Jin  
Productor: Choi Moon-Su  
Fecha de estreno: February 14, 2008  
Duracion : 123 min.  
Distribuidor: Showbox/Mediaplex  
Pais: Corea del sur
Idioma: Hangul

Protagonistas:
Kim Yun-Seok -  Jung-Ho
Ha Jung-Woo - Ji Young-Min
SeoYoung-Hee -Mi-Jin

Otros actores:
Park Hyo-Joo
Jeong In-Gi
Jo Duk-Je
Kim You-Jung
Ko Bon-Woong
Kim Young-Sun
Son Hee-Seon
Choi Jeong-Woo
Min Kyeong-Jin
Oh Woo-Jung
Jeong Jae-Hun
Jo Seok-Hyeon
Jeong Gi-Seop
Yeo Moo-Young
Lee Sang-Hee

Archivo


   Format : MPEG-4
  Format profile : Base Media
  Codec ID : isom
   File size : 750 MiB
  Duration : 1h 59mn

  Overall bit rate : 874 Kbps
  Encoded date : UTC 2011-09-22 15:04:03
  Tagged date : UTC 2011-09-22 15:04:03

Video #1
  ID : 1
  Format : AVC
  Format/Info : Advanced Video Codec
  Format profile : [email protected]
  Format settings, CABAC : Yes
  Format settings, ReFrames : 3 frames
  Format settings, GOP : M=4, N=25
   Codec ID : avc1
  Codec ID/Info : Advanced Video Coding
  Duration : 1h 59mn
  Bit rate mode : Variable
   Bit rate : 808 Kbps
  Maximum bit rate : 25.0 Mbps
   Width : 1 280 pixels
  Height : 544 pixels

  Display aspect ratio : 2.35:1
  Frame rate mode : Constant
  Frame rate : 25.000 fps
  Color space : YUV
  Chroma subsampling : 4:2:0
  Bit depth : 8 bits
  Scan type : Progressive
  Bits/(Pixel*Frame) : 0.046
  Stream size : 692 MiB (92%)
  Title : The Chaser 2008 720p BRRip
  Writing library : x264 core 114 r1924 08d04a4

Audio #2
  ID : 2
   Format : AAC
  Format/Info : Advanced Audio Codec
  Format profile : HE-AAC / LC
  Codec ID : 40
  Duration : 1h 59mn
  Bit rate mode : Variable
   Bit rate : 64.2 Kbps (El audio no es malo como puede parecer por el bit rate)
  Maximum bit rate : 72.5 Kbps
   Channel(s) : 2 channels
  Channel positions : Front: L R
  Sampling rate : 48.0 KHz / 24.0 KHz
  Compression mode : Lossy
  Stream size : 55.1 MiB (7%)
   Language : Korean
  Subtitulos : Español (.srt)
















Enlaces De Descarga

sper91



The Chaser (2008) BR-Rip 720p [Korea]
0 Puntos Score: 0/10
Visitas: 1517 Favoritos: 2
7 Comentarios The Chaser (2008) BR-Rip 720p [Korea]
sos de lo mejor  mil gracias muy buen aporte
Nooo no puede ser tengo las dos primeras partes descargadas. Me faltan las dos restantes y se cayeron los links o te suspendieron la cuenta. Subilos de nuevo por favor muchas gracias por el aporte. Quiero ver esta peliiii!!!!1  
@Lockher lo siento amigo me suspendieron la cuenta hace un par de horas, casi al mismo tiempo que identi se apago vere, si la tengo en mi cuenta de respaldo por que hubo cosas que no habia respaldado y te aviso
Uuh gracias Speeer!!!
Grasias por tu aporte
Para dejar un comentario Registrate! o.. eres ya usuario? Accede!