Oops.. Este post tiene los enlaces eliminados!

Identi revisa las denuncias de los usuarios en busca de enlaces eliminados que no dejan descargar los archivos, este mensaje te informa que este post que estas viendo tiene los enlaces eliminados.

Usa el Buscador

Por favor, te recomendamos que uses el buscador para encontrar más alternativas.

SHREK 1 [BDrip][1080p]

  • Categoría: Reciclaje
  • Publicado hace más de 4 años
SHREK 1 [BDrip][1080p]






Shrek es una película de animación digital de 2001, dirigida por Andrew Adamson y Vicky Jenson. Está basada en en el libro infantil ilustrado Shrek!, de William Steig (1990). La película ganó el Oscar a la Mejor Película de Animación y participó en la selección oficial del Festival de Cannes de 2001. Shrek quiere decir susto en Idish, idioma previo al hebreo.

SINOPSIS:

El personaje principal, Shrek , es un ogro suficientemente agradable quien quiere vivir sus días en paz. Cuando el diminuto Lord Farquaad expulsa a todas las criaturas de los cuentos de hadas de la comarca (incluidos los ahora famosos siete enanitos, Pinocho y el hombre alfajor), y se establecen en el pantano del ogro, Shrek quiere respuestas de Farquaad. Una búsqueda, si se le puede llamar así, inicia para Shrek y su nuevo amigo, un burro parlante , donde batallas tienen que ser ganadas y una princesa  debe ser rescatada de la guarida de un dragón en una emocionante secuencia de acción.

FICHA TECNICA:

Complete name            : E:SHREK 1.mkv
Format                 : Matroska
Format version             : Version 2
File size                : 1.67 GiB
Duration               : 1h 30mn
Overall bit rate           : 3 309 Kbps
Writing application          : HandBrake 0.9.4

Video
ID                   : 1
Format                 : AVC
Format/Info              : Advanced Video Codec
Format profile             : [email protected]
Format settings, CABAC       : Yes
Format settings, ReFrames      : 2 frames
Codec ID               : V_MPEG4/ISO/AVC
Duration               : 1h 30mn
Bit rate               : 2 155 Kbps
Width                  : 1 920 pixels
Height                 : 1 080 pixels
Display aspect ratio         : 16:9
Frame rate               : 23.976 fps
Color space              : YUV
Chroma subsampling         : 4:2:0
Bit depth                : 8 bits
Scan type                : Progressive
Bits/(Pixel*Frame)         : 0.043
Stream size              : 1.36 GiB (65%)
Writing library            : x264 core 79
Encoding settings          : cabac=1 / ref=2 / deblock=1:0:0 / analyse=0x1:0x111 / me=hex / subme=6 / psy=1 / psy_rd=1.0:0.0 / mixed_ref=0 / me_range=16 / chroma_me=1 / trellis=0 / 8x8dct=0 / cqm=0 / deadzone=21,11 / chroma_qp_offset=-2 / threads=3 / nr=0 / decimate=1 / mbaff=0 / constrained_intra=0 / bframes=2 / b_pyramid=0 / b_adapt=1 / b_bias=0 / direct=1 / wpredb=0 / wpredp=2 / keyint=240 / keyint_min=24 / scenecut=40 / rc_lookahead=40 / rc=crf / mbtree=1 / crf=25.0 / qcomp=0.60 / qpmin=10 / qpmax=51 / qpstep=4 / ip_ratio=1.40 / aq=1:1.00
Language               : English
Color primaries            : BT.709-5, BT.1361, IEC 61966-2-4, SMPTE RP177
Transfer characteristics       : BT.709-5, BT.1361
Matrix coefficients          : BT.709-5, BT.1361, IEC 61966-2-4 709, SMPTE RP177

Audio #1
ID                   : 2
Format                 : AC-3
Format/Info              : Audio Coding 3
Mode extension             : CM (complete main)
Codec ID               : A_AC3
Duration               : 1h 30mn
Bit rate mode            : Constant
Bit rate               : 448 Kbps
Channel(s)               : 6 channels
Channel positions          : Front: L C R, Side: L R, LFE
Sampling rate            : 48.0 KHz
Bit depth                : 16 bits
Compression mode           : Lossy
Stream size              : 289 MiB (14%)
Language               : Spanish








SHREK 1 [BDrip][1080p]
10 Puntos Score: 5/10
Visitas: 2970 Favoritos: 2
Ver los usuarios que votaron...
21 Comentarios SHREK 1 [BDrip][1080p]
buen aporte descargando
Lo descargo cuando tenga espacio, gracias  
PASS:    Mr_Movies  
Hola, te pregunto algo.. yo uso el mipony o tmb el jdownloader.. pero hace dos dias cuando los copio a los enlaces en la parte donde tiene que aparecer el tama?
Alguien tendra la 2 y la 4?
Cita Mr_Movies: Mostrar

Ya revise tus aportes gracias por compartir, ojala puedas a subir a putlocker ya que en mediafire se estan poniendo exigentes.

Mil gracias compa.
cual es la contrase?
hola muchas gracias y una pregunta es espa?
gracias a ti por el aportazo y por tu respuesta tan rapida salu2
hola tengo un peque?
@abellopez PASS:    Mr_Movies  ,disfrutala
me da erron en bajar los links 4, 5 y  6 !!! resubilos!!
excelente, muchas gracias, bajando y disfrutando,
ya no esta el contenido :C
cuenta suspendida =S creo que hubiese sido un buen aporte
ya no esta mas los linkss!!! podrias resubirlaaaa!!!??? porfavorrr!!!
si por favor subir los links
so por favor, yo me uno a la petici?
Para dejar un comentario Registrate! o.. eres ya usuario? Accede!