21 jump street [subtitulada r5]

21 jump street [subtitulada r5]
















Un par de jóvenes agentes de la ley que se hacen pasar por alumnos de instituto para desarticular una red de narcotráfico. Adaptación cinematográfica en clave de comedia de ?Jóvenes policías?, una serie televisiva de los 80 protagonizada por Johnny Depp.





General
Complete name       : 21_Jump_Street_R5.rmvb
Format            : RealMedia
File size          : 601 MiB
Duration           : 1h 45mn
Overall bit rate         : 782 Kbps


Video
ID            : 0
Format            : RealVideo 4
Codec ID           : RV40
Codec ID/Info          : Based on AVC (H.264), Real Player 9
Duration           : 1h 45mn
Bit rate           : 718 Kbps
Width            : 640 pixels
Height            : 480 pixels
Display aspect ratio       : 4:3
Frame rate          : 25.000 fps
Bits/(Pixel*Frame)        : 0.094
Stream size         : 542 MiB (90%)


Audio
ID            : 1
Format            : Cooker
Codec ID           : cook
Codec ID/Info          : Based on G.722.1, Real Player 6
Duration           : 1h 45mn
Bit rate           : 64.1 Kbps
Channel(s)          : 2 channels
Sampling rate          : 44.1 KHz
Bit depth          : 16 bits
Stream size         : 48.3 MiB (8%)


























http://www.identi.li



21 jump street [subtitulada r5]
0 Puntos Score: 0/10
Visitas: 1576 Favoritos: 0
13 Comentarios 21 jump street [subtitulada r5]
descargada!!!, gracias por subirla, pinta bien. sldos
espero sea de tu agrado gracias por pasar por mi [email protected]
gracias por tu aporte pero esta muy cortada como en un 60 % de la pantalla pero igual para los que no aguanten esta muy buena la imagen y el sonido.
si..la fui a ver ahora... y la calidad y el sonido muy bien. pero lo ?
@ralex10 @sancesar  si amigos la hicieron rapido para los que no se pueden aguantar las ganas pero cuando salga en dvdrip la posteo
Cita danyel_6: Mostrar

probar?
No funcan los enlaces !!
@Quemetil ya arregle los enlaces amigo espero sea de tu agrado
Gracias, veremos entonces
 
buenisimo el trailer XDDD
cuando termine de descargar crepusCULO sigo con esta xD
@Calcifer espero y te guste amigo gracias por pasar y comentar
hermano no se que pasa cuando trato de descomprimir la pelicula me dice que la contrase?
@juniorvnzl    amigo la contrase?
Para dejar un comentario Registrate! o.. eres ya usuario? Accede!