Oops.. Este post tiene los enlaces eliminados!

Identi revisa las denuncias de los usuarios en busca de enlaces eliminados que no dejan descargar los archivos, este mensaje te informa que este post que estas viendo tiene los enlaces eliminados.

Usa el Buscador

Por favor, te recomendamos que uses el buscador para encontrar más alternativas.

SHREK 2 [BDrip][1080p]

  • Categoría: Reciclaje
  • Publicado hace más de 4 años
SHREK 2 [BDrip][1080p]






Shrek 2 es una película de animación estrenada el 17 de junio de 2004 por CGI producida por Dreamworks Animation de 2004 dirigida por Andrew Adamson, Kelly Asbury y Conrad Vernon. Es el segundo proyecto de la serie de Shrek, y la secuela de Shrek de 2001. En su idioma original, presenta las voces estelares de Mike Myers, Eddie Murphy, Cameron Diaz, Julie Andrews, John Cleese, Rupert Everett, Jennifer Saunders y Antonio Banderas siendo una de las más grandes controversias de los actores participantes.

SINOPSIS

Shrek ha rescatado a la Princesa Fiona, se ha casado y ahora es momento para conocer a sus suegros. Shrek, Fiona y Burro, se han puesto en marcha hacia Muy, Muy Lejano para conocer a los padres de Fiona. Pero no todos están contentos. A Shrek y el Rey les resulta difícil llevarse bien y hay tensión en el matrimonio. No es sólo la familia la que está descontenta. El Príncipe Encantador regresa después de fallar en su intento de rescatar a Fiona y trabaja junto con su madre, el Hada Madrina, para encontrar una manera para alejar a Shrek de Fiona.

FICHA TECNICA

Complete name            : E:SHREK 2.mkv
Format                 : Matroska
Format version             : Version 2
File size                : 1.55 GiB
Duration               : 1h 32mn
Overall bit rate           : 3 054 Kbps
Writing application          : HandBrake 0.9.4

Video
ID                   : 1
Format                 : AVC
Format/Info              : Advanced Video Codec
Format profile             : [email protected]
Format settings, CABAC       : Yes
Format settings, ReFrames      : 2 frames
Codec ID               : V_MPEG4/ISO/AVC
Duration               : 1h 32mn
Bit rate               : 1 970 Kbps
Width                  : 1 920 pixels
Height                 : 1 080 pixels
Display aspect ratio         : 16:9
Frame rate               : 23.976 fps
Color space              : YUV
Chroma subsampling         : 4:2:0
Bit depth                : 8 bits
Scan type                : Progressive
Bits/(Pixel*Frame)         : 0.040
Stream size              : 1.27 GiB (64%)
Writing library            : x264 core 79
Encoding settings          : cabac=1 / ref=2 / deblock=1:0:0 / analyse=0x1:0x111 / me=hex / subme=6 / psy=1 / psy_rd=1.0:0.0 / mixed_ref=0 / me_range=16 / chroma_me=1 / trellis=0 / 8x8dct=0 / cqm=0 / deadzone=21,11 / chroma_qp_offset=-2 / threads=3 / nr=0 / decimate=1 / mbaff=0 / constrained_intra=0 / bframes=2 / b_pyramid=0 / b_adapt=1 / b_bias=0 / direct=1 / wpredb=0 / wpredp=2 / keyint=240 / keyint_min=24 / scenecut=40 / rc_lookahead=40 / rc=crf / mbtree=1 / crf=25.0 / qcomp=0.60 / qpmin=10 / qpmax=51 / qpstep=4 / ip_ratio=1.40 / aq=1:1.00
Language               : English
Color primaries            : BT.709-5, BT.1361, IEC 61966-2-4, SMPTE RP177
Transfer characteristics       : BT.709-5, BT.1361
Matrix coefficients          : BT.709-5, BT.1361, IEC 61966-2-4 709, SMPTE RP177

Audio #1
ID                   : 2
Format                 : AC-3
Format/Info              : Audio Coding 3
Mode extension             : CM (complete main)
Codec ID               : A_AC3
Duration               : 1h 32mn
Bit rate mode            : Constant
Bit rate               : 384 Kbps
Channel(s)               : 6 channels
Channel positions          : Front: L C R, Side: L R, LFE
Sampling rate            : 48.0 KHz
Bit depth                : 16 bits
Compression mode           : Lossy
Stream size              : 254 MiB (13%)
Language               : Spanish









Mr_Movies
SHREK 2 [BDrip][1080p]
10 Puntos Score: 10/10
Visitas: 1319 Favoritos: 2
Ver los usuarios que votaron...
17 Comentarios SHREK 2 [BDrip][1080p]
mmm drmasiado pesada se que no se puede tener esa calidad en formato m?
excelente, bajando, muchisimas gracias....tienes la 3 por esas casualidades?
si alguien las 4 peliculas en dvdrip o hd 720p audio latino o dual audio, y si esta en mediafire mejor aun je xfavor pasenme los links, se los agradeceria !
@huriel_mza utiliza el buscador de identi
 
@Mr_Movies Esto Es Mucho Con Demasiado Te Pasaste...
Sube Mas En Este Formato...
 
Gracias
 
muchas muchas gracias!! trata de usar un matroska mas "todo terreno" algunas tv?
@valkengear te refieres a que no sea tan comprimida
oye que cres ya lo descargue y esta roto un archivo
Links caidos solo descarge la 1 y la 2, 3, 4 esta caidos , espero las resubas amigo...
me borraron la cuenta
acabo de comentar eso en el de la primer peli u.u Una verdadera lastima =S ahi muchas cuentas suspendidas (revisando otros post) =/
puedes subir la pelicula de nuevo esque es la unica que no e visto por favor
estimado mr_movie, existe la posibilidad de reponer todas las shrek en 1080 que ud tan amablemente ha compartido con la comunidad, espero su respuesta, y agradezco de antemano
@Ralv podria subirla a putlocker   si hay tiempo
Cita Mr_Movies: Mostrar
si exacto esta ultraconprimidas y mi tv no las agarra a te  mataron la cuenta en mediafire
Para dejar un comentario Registrate! o.. eres ya usuario? Accede!