Oops.. Este post tiene los enlaces eliminados!

Identi revisa las denuncias de los usuarios en busca de enlaces eliminados que no dejan descargar los archivos, este mensaje te informa que este post que estas viendo tiene los enlaces eliminados.

Usa el Buscador

Por favor, te recomendamos que uses el buscador para encontrar más alternativas.

Crows Zero 2 BRRip 720p [Jap?n]

  • Categoría: Reciclaje
  • Publicado hace más de 4 años
Este post ya lo había puesto pero se perdió en estos días así que si alguien se quedo a la mitad de la descarga o algo así aquí esta otra ves.



Segunda parte de la película Crows Zero (Ir al post) entraron muchos personajes nuevos en esta y a mi parecer le sobra acción y le falta trama, aun así no deja de ser entretenida. Cambiando de tema, se que en comentarios de ayer dije que iba a estar en 5 horas el post, la verdad es que la subida me tomo 6 horas y cuando me disponía a hacer el post precisamente redactando esta parte me invadió tremenda mente el sueño así que preferí dormirme y hacer el post ahorita ya con mas calma que hacer el post probablemente con muchos errores bueno ya pasemos a la critica de la película.

Cita: Mostrar





"Crows II" continúa la historia donde terminó "Crows-Zero": el último curso en el instituto Suzuran se acerca a su fin para Genji y sus compañeros. Aún así, los problemas para el instituto de los Cuervos no han hecho más que empezar. Genji sigue obsesionado con vencer a Rindaman aunque todos sus intentos terminen en derrota, para alegría del grupo de Serizawa. Mientras Makise, Izaki y Chuta intentan convencer a Genji para que lo deje correr, un peligro aún mayor que Rindaman empieza a forjarse a las puertas del instituto; los alumnos del instituto Hosen, enemigo natural de Suzuran, se preparan para cumplir la venganza que llevan planeando desde hace dos años. Genji demostró ser el más fuerte de Suzuran, pero... ¿podrá dominar a todo el instituto y erigirse como el líder que derrotará a Hosen en la nueva guerra que acaba de estallar?



Ficha Tecnica:

Titulo: Crows Zero 2 / Crows Zero II
Titulo (Romaniji):: Kurozu zero II
Titulo (Romanji): ??-? ZERO 2 / ????ZERO II
Director: Takashi Miike
Productor : Mataichiro Yamamoto
Escritor: Hiroshi Takahashi, Shogo Muto
Fecha de estreno: Abril 11, 2009
Duracion : 133 min.
Estudio: Toho
Distribuidor: Toho
Idioma: Japones
Pais: Japón

Protagonistas:

Shun Oguri - Genji Takiya Takayuki Yamada - Tamao Serizawa Nobuaki Kaneko - Taiga Narumi

Reparto
Takaoka Sousuke como Shun Izaki (miembro del GPS)
Suzunosuke Tanaka como Chutá Tamura (miembro del GPS)
Tsutomu Takahashi como Takashi Makise (miembro del GPS)
Yabe Kyosuke como Ken Katagiri (ex estudiante de Suzuran)
Kiritani Kenta como Tatsukawa Tokio (miembro del Ejército Serizawa)
Hisato Izaki como Takeshi Mikami (miembro del Ejército Serizawa)
Yusuke Izaki como Manabu Mikami (miembro del Ejército Serizawa)
Kamiji Yusuke como Shoji Tsutsumoto (miembro del Ejército Serizawa)
Endo Kaname como Yuji Tokaji (miembro del Ejército Serizawa)
Daito Shunsuke como Hiromi Kirishima (líder del trío)
Ryo Hashizume como Toshiaki Honjo (miembro del trío)
Yu Koyanagi como Makoto Sugihara (miembro del trío)
Miura Haruma como Bitou Tatsuya (estudiante de Hosen)
Ayano Go como Urushibara Ryo (estudiante de Hosen)
Warabino Tomoya como Shimayama Hayato (estudiante de Hosen)
Namioka Kazuki como Washio Gota (estudiante de Suzuran y Hosen)
Oguchi Kengo como Kumagiri Rikiya (estudiante de Hosen)
Abe Shinoosuke como Kawanishi Sho (estudiante de Hosen)
Fukami Motoki como Megumi Hayashida (rinda-man)
Kuroki Meisa como Ruka Aizawa

Archivo:


Format : Matroska
 File size : 1.89 GiB
 Duration : 2h 13mn

 Overall bit rate : 2 030 Kbps
 Writing application : DivXMKVMux 3.4.1.0004
 Writing library : libDivXMediaFormat 3.4.1.0004
  Video #1
 ID : 1
 Format : AVC
 Format/Info : Advanced Video Codec
 Format profile : [email protected]
 Format settings, CABAC : Yes
 Format settings, ReFrames : 4 frames
 Format settings, GOP : M=4, N=48
    Codec ID : V_MPEG4/ISO/AVC
 Duration : 2h 13mn
Bit rate : 1 541 Kbps
 Width : 1 280 pixels
 Height : 544 pixels

 Display aspect ratio : 2.35:1
 Frame rate : 23.976 fps
 Standard : NTSC
 Color space : YUV
 Chroma subsampling : 4:2:0
 Bit depth : 8 bits
 Scan type : Progressive
 Bits/(Pixel*Frame) : 0.092
 Stream size : 1.43 GiB (76%)
    Language : English
 Color primaries : BT.709-5, BT.1361, IEC 61966-2-4, SMPTE RP177
 Transfer characteristics : BT.709-5, BT.1361
 Matrix coefficients : BT.709-5, BT.1361, IEC 61966-2-4 709, SMPTE RP177

  Audio #2
 ID : 2
     Format : AC-3
 Format/Info : Audio Coding 3
 Mode extension : CM (complete main)
    Codec ID : A_AC3
 Duration : 2h 13mn
 Bit rate mode : Constant
Bit rate : 448 Kbps
 Channel(s) : 6 channels

 Channel positions : Front: L C R, Side: L R, LFE
 Sampling rate : 48.0 KHz
    Bit depth : 16 bits
 Compression mode : Lossy
 Stream size : 427 MiB (22%)
 Idioma : Japones
 Subtitulos : Español (.srt con adelanto de 6 segundos, no encontré sincronizados con esta versión)



Dale clic a la imagen para verla en la resolución original 1280x544








Para ver el trailer da clic en el icono play y luego en la palabra video que aparecera en arriba

<a href="http://assets.mixpod.com/swf/mp3/mixpod.swf?myid=88774769&amp;path=2012/05/08" target="_blank">[link]</a>

[link]



Enlaces De Descarga



sper91







Crows Zero 2 BRRip 720p [Jap?n]
15 Puntos Score: 7.5/10
Visitas: 2902 Favoritos: 6
Ver los usuarios que votaron...
15 Comentarios Crows Zero 2 BRRip 720p [Jap?n]
bajando.....+10.....gracias
@angelmao79 Gracias por pasar, por comentar y por los puntos amigo, espero que la disfrutes
sos mi idolo kapo esta pelcula esta espectacular aligual q la uno estaria pola q sakaran una tercera parte  
@ka1ron Jajaja es cierto estar?
esta pelicula es wennnnnnnnnnna mmujxo mexor ke la primera parte
Muy buen post hermano, esto es lo mejor !
@darkwing @Kacotaku Gracias por pasar amigos espero que la disfruten
Los links estan caidos    
Cita sper91: Mostrar
Gracias amigo! Vamos a ver que tal estas Crows Zero 1 y 2! Saludos
amigo puedes resubirla porfavor te o agradeceria enserio porfavor son muy buenas peliculas
hey bro  sube de nuevo las ligas por faz
XD ahora k me kede con las ganas de ver la 2 tambien XD.
Para dejar un comentario Registrate! o.. eres ya usuario? Accede!