Oops.. Este post tiene los enlaces eliminados!

Identi revisa las denuncias de los usuarios en busca de enlaces eliminados que no dejan descargar los archivos, este mensaje te informa que este post que estas viendo tiene los enlaces eliminados.

Usa el Buscador

Por favor, te recomendamos que uses el buscador para encontrar más alternativas.

SHREK 3 [BDrip][1080p]

  • Categoría: Reciclaje
  • Publicado hace más de 4 años
SHREK 3 [BDrip][1080p]














Shrek Tercero es una película estrenada el 29 de mayo de 2007 dirigida por Chris Miller y Raman Hui.Es el tercer proyecto de la serie de Shrek, y la secuela de Shrek 2. En su idioma original, presenta las voces estelares de Mike Myers, Eddie Murphy, Cameron Diaz, Julie Andrews, John Cleese, Rupert Everett y Antonio Banderas.


SINOPSIS


Al fallecer el padre de Fiona, quien es el rey de Muy, Muy Lejano, el torpe Shrek se convierte en el sucesor inmediato al trono. Sin embargo, Shrek decide encontrar al heredero legítimo, Artie en un distante Reino, junto con sus amigos Burro y el Gato con Botas para poder volver a su querida casa en el pantano con Fiona embarazada. Mientras tanto, el envidioso y ambicioso Príncipe Encantador se une a los villanos de los cuentos de hadas tramar un golpe de Estado para convertirse en el nuevo rey.


FICHA:



Complete name            : E:SHREK 3.mkv
Format                     : Matroska
Format version            : Version 2
File size                   : 1.37 GiB
Duration                  : 1h 32mn
Overall bit rate            : 2 765 Kbps
Writing application          : HandBrake 0.9.4

Video
ID                       : 1
Format                  : AVC
Format/Info              : Advanced Video Codec
Format profile             : [email protected]
Format settings, CABAC       : Yes
Format settings, ReFrames      : 2 frames
Codec ID                : V_MPEG4/ISO/AVC
Duration                 : 1h 32mn
Bit rate                   : 1 686 Kbps
Width                   : 1 920 pixels
Height                  : 1 072 pixels
Display aspect ratio       : 16:9
Frame rate               : 23.976 fps
Color space              : YUV
Chroma subsampling     : 4:2:0
Bit depth                : 8 bits
Scan type               : Progressive
Bits/(Pixel*Frame)        : 0.034
Stream size              : 1.09 GiB (61%)
Writing library            : x264 core 79


Audio #1
ID                       : 2
Format                   : AC-3
Format/Info              : Audio Coding 3
Mode extension          : CM (complete main)
Codec ID                : A_AC3
Duration                 : 1h 32mn
Bit rate mode             : Constant
Bit rate                   : 384 Kbps
Channel(s)               : 6 channels
Channel positions        : Front: L C R, Side: L R, LFE
Sampling rate             : 48.0 KHz
Bit depth                : 16 bits
Compression mode           : Lossy
Stream size              : 255 MiB (14%)
Language               : Spanish























Mr_Movies


POST Resubido debido a  que  se  perdio ,espero que la disfrtuen
SHREK 3 [BDrip][1080p]
10 Puntos Score: 5/10
Visitas: 1292 Favoritos: 3
Ver los usuarios que votaron...
14 Comentarios SHREK 3 [BDrip][1080p]
perdon men te molesto pero despues de crear el post donde le doy pa publicarlo??.....es ke le doy donde dice previsualizar y no pasa nada
click en previsualizar espera un momento aparece una ventana  y en la esquina inferior derecha hay un boton que dice publicar y le das click , quiza al darle click en previsualizar no aparezca nada eso es debido a que identi esta lento por el momento por unas fallas que sufrio pero poco a poco se arreglara
Amigo.. podrias poder la descripcion del video con mediainfo..!! por fa
groso!! gracias master
Gracias a ti por responder...me toco quitar imagenes del post para que pudiera publicarse....por cierto me llevo la peli...gracias
Gracias men +5
Te quisiera pedir si puedes subir "s?
@MLPF descargaste las pelis de xmen???
estan en espa?
@MLPF sacale el audio con el  mkvmerge GUI
@oruga Espa?
Bien, Bueno ya casi termino, lastima que no pueda dejarte puntos por lo que soy novato pero te mereces +10
Posdata: Si tienes mas pel?
todos los enlaces est?
Links Caidos  
Para dejar un comentario Registrate! o.. eres ya usuario? Accede!