Oops.. Este post tiene los enlaces eliminados!

Identi revisa las denuncias de los usuarios en busca de enlaces eliminados que no dejan descargar los archivos, este mensaje te informa que este post que estas viendo tiene los enlaces eliminados.

Usa el Buscador

Por favor, te recomendamos que uses el buscador para encontrar más alternativas.

Memories Of Murder 2003 [DVDRip] [Korea]

  • Categoría: Reciclaje
  • Publicado hace más de 4 años



Muy buen Thiller coreano de principio a fin te mantiene pensado "¿Quien es el asesino?" otra peliculla muy recomendable si te gusta el genero.

PD: En un rato vuelvo a publicar los post que publique la semana pasada que fueron los que desapareciron Hansel and Gretel, The chaser, The yellow sea, Crows zero 1 y 2

Cita: Mostrar





Corea del Sur, 1986. n la provincia de Gyunggi, una joven aparece brutalmente violada y asesinada. Dos meses después, se producen una serie de violaciones y asesinatos en circunstancias similares. Para buscar al asesino, se organiza un destacamento especial, encabezado por un detective de la policía local (Park Doo-man) y un detective de la policía de Seúl (Seo Tae-yoon), que ha solicitado ser asignado al caso.

Ficha Tecnica:

Titulo: Memories of Murder
Titulo (Romanizada): Salinui chueok
Titulo (Hangul): ??? ??
Director: Bong Joon-Ho
Productor : Cha Seoung-Jae, Kim Moo Ryung, Lee Kang-bok, No Jong-yun
Escritor: Bong Joon-Ho, Kwang-rim Kim
Fecha de estreno: Mayo 2, 2003
Duracion : 128 Min
Estudio: CJ Entertainment, Sidus Pictures
Distribuidor: CJ Entertainment
Idioma: Hangul (Coreano)
Pais: Corea del sur

Protagonistas:
Song Kang-Ho - Det. Park Doo-Man
Kim Sang-Kyung - Det. Seo Tae-Yoon

Reparto :

Kim Roe Ha (Jo Yong-gu)
Song Jae-ho (Sargento Shin)
Byeon Hie-bong (Sargento Gu)
Koh Seo-he e (Kwon Kwi-ok)
Park No Sik (Baek Kwang-ho)
Park Hae Il (Park Hyeon-gyu)

Archivo:

    Format : MPEG-4
    Format profile : Apple audio with iTunes info
    Codec ID : M4A
    File size : 701 MiB
    Duration : 2h 8mn

    Overall bit rate : 766 Kbps
    Encoded date : UTC 2010-12-30 23:28:15
    Tagged date : UTC 2010-12-30 23:28:15

 Video #2
    ID : 2
    Format : AVC
    Format/Info : Advanced Video Codec
    Format profile : [email protected]
    Format settings, CABAC : Yes
    Format settings, ReFrames : 5 frames
    Codec ID : avc1
    Codec ID/Info : Advanced Video Coding
    Duration : 2h 8mn
    Bit rate mode : Variable
    Bit rate : 698 Kbps
    Maximum bit rate : 10.8 Mbps
    Width : 704 pixels
    Height : 400 pixels

    Display aspect ratio : 16:9
    Frame rate mode : Constant
    Frame rate : 23.976 fps
    Color space : YUV
    Chroma subsampling : 4:2:0
    Bit depth : 8 bits
    Scan type : Progressive
    Bits/(Pixel*Frame) : 0.103
    Stream size : 639 MiB (91%)

 Audio #1
    ID : 1
    Format : AAC
    Format/Info : Advanced Audio Codec
    Format profile : LC
    Codec ID : 40
    Duration : 2h 8mn
    Bit rate mode : Variable
    Bit rate : 64.4 Kbps
    Maximum bit rate : 72.1 Kbps
    Channel(s) : 2 channels
    Channel positions : Front: L R
    Sampling rate : 44.1 KHz
    Compression mode : Lossy
    Stream size : 59.0 MiB (8%)
    Encoded date : UTC 2010-12-30 23:28:15
    Tagged date : UTC 2010-12-30 23:28:30












Para ver el trailer da clic en el icono play y luego en la palabra video que aparecera en arriba


<a href="http://assets.mixpod.com/swf/mp3/mixpod.swf?myid=88782646&amp;path=2012/05/09" target="_blank">[link]</a>

[link]

Enlaces De Descarga

3 partes de 200 MB y 1 de 109 MB
http://www.mediafire.com/?zb0b9tvnk7zk6e2
Añadir extencion .txt

Cualquier problema con los enlaces no dudes en comentar


                                                                        IMPORTANTE                                                                        

Los archivos fueron divididos y encriptados con File Splitter and Joiner (Descargr desde Softonic), asi que hay que unirlos y cambiar el nombre del archivo ya unido, que en este caso es "Rtn_rarO"  hay que cambiarlo por "Rnt.rar" despues lo descomprimen con winrar (Descargar desde Softonic).

Les dejo esta pequeña guia online con algunas capturas (Clic Aqui)








Memories Of Murder 2003 [DVDRip] [Korea]
0 Puntos Score: 0/10
Visitas: 1176 Favoritos: 1
10 Comentarios Memories Of Murder 2003 [DVDRip] [Korea]
esta peli el otro dia la empece a ver en el cable pero no la termine de ver! la bajare para ver en que termina!! por cierto es el prota de The Host! gracias amigoo!!
Gracias,gracias...
@think01 Para que no te quedes con la duda. Gracias por pasar

@kenijag Gracias por pasar amigo
@locoyou Gracias por pasar amigo es cierto nunca se sabe cuando, en un momento de aburrimiento la vuelves a ver   . Yo igual ando inconforme con los datos que se perdieron y algunas de las fallas , es como si identi se estuviera estancando en lugar de mejorar, igual y me est?
Una pena links caidos  
@Walterium Listo amigo todos los links disponibles a excepci?
Cita sper91: Mostrar
@Walterium Disfruta las peliculas amigo, cualquier cosa me avisas
Los links est?
Para dejar un comentario Registrate! o.. eres ya usuario? Accede!