Oops.. Este post tiene los enlaces eliminados!

Identi revisa las denuncias de los usuarios en busca de enlaces eliminados que no dejan descargar los archivos, este mensaje te informa que este post que estas viendo tiene los enlaces eliminados.

Usa el Buscador

Por favor, te recomendamos que uses el buscador para encontrar más alternativas.

Returner 2002 [BRRip-720p] [Japon]

  • Categoría: Reciclaje
  • Publicado hace más de 4 años


Como no he visto esta pelicula citare el comentario de otra persona

Cita: Mostrar





Año 2084. Después de décadas de sangrientas luchas, una fuerza invasora alienígena está a punto de destruir lo poco que queda del mundo. En un desesperado intento por salvar la raza humana, un soldado de la guerrilla, de nombre Miri, recurre a la máquina del tiempo. A sólo 72 horas del plazo límite previsto para el inicio de las Guerras Alienígenas, convence a Miyamoto, un francotirador experto en artes marciales, para que se una a su causa.



Titulo: Returner
Titulo (Kanji): ?????
Titulo(Romanji) Ritana
Genero: Ciencia ficción. Fantástico. Acción | Extraterrestres. Viajes en el tiempo
Director: Takashi Yamazaki
Guion: Kenya Hirata , Takashi Yamazaki  
Productor: Chikahiro Ando, Toru Horibe, Akifumi Takuma  
Fotografia: Akira Sako, Kozo Shibasaki  
Fecha de estreno: August 31, 2002  
Duracion: 116 Min.  
Productora: Fuji TV, Amuse, Toho  
Idioma: Japanese  

Pais: Japan

Actores:

Takeshi Kaneshiro - Miyamoto
Anne Suzuki - Milly
Kirin Kiki - Xie
Goro Kishitani - Mizoguchi
Yukiko Okamoto - Dr. Yagi
Mitsuru Murata - Mizoguchi's Henchman
Kisuke Iida - Karasawa, Mizoguchi's Henchman
Kazuya Shimizu - Murakami, Mizoguchi's Henchman
Chiharu Kawai - Liu's Interpreter
Dean Harrington - Dr. Brown
Xiaoqun Zhao - Slave Merchant
Masaya Takahashi - Liu Laoban, Chinese Godfather
Kohei Watanabe

Patrick Harlan - Patrick











Para ver el trailer da clic en el icono play  y luego arriba donde aparecera la palabra video


<a href="http://assets.mixpod.com/swf/mp3/mixpod.swf?myid=88702399&amp;path=2012/04/26" target="_blank">[link]</a>

[link]




Format : Matroska
 File size : 4.37 GiB
 Duration : 1h 52mn

 Overall bit rate : 5 565 Kbps
 Encoded date : UTC 2010-05-13 11:54:58
 Writing application : mkvmerge v3.1.0 ('Happy up here') built on Jan 19 2010 12:09:24
 Writing library : libebml v0.7.9 + libmatroska v0.8.1
Video #1
 ID : 1
 Format : AVC
 Format/Info : Advanced Video Codec
 Format profile : [email protected]
 Format settings, CABAC : Yes
 Format settings, ReFrames : 5 frames
    Codec ID : V_MPEG4/ISO/AVC
 Duration : 1h 52mn
 Bit rate : 4 924 Kbps
Width : 1 280 pixels
 Height : 552 pixels

 Display aspect ratio : 2.35:1
 Frame rate : 23.976 fps
 Color space : YUV
 Chroma subsampling : 4:2:0
    Bit depth : 8 bits
 Scan type : Progressive
 Bits/(Pixel*Frame) : 0.291
 Stream size : 3.78 GiB (87%)
 Writing library : x264 core 94 r1570 d9db8b3
    Language : Japanese
Audio #2
 ID : 2
Format : AC-3
 Format/Info : Audio Coding 3
 Mode extension : CM (complete main)
    Codec ID : A_AC3
 Duration : 1h 52mn
 Bit rate mode : Constant
Bit rate : 640 Kbps
 Channel(s) : 6 channels

 Channel positions : Front: L C R, Side: L R, LFE
 Sampling rate : 48.0 KHz
    Bit depth : 16 bits
 Compression mode : Lossy
 Stream size : 515 MiB (12%)
Language : Japanese
Subtitulos : Español (.srt)
Text #3
 ID : 3
 Format : UTF-8
 Codec ID : S_TEXT/UTF8
 Codec ID/Info : UTF-8 Plain Text
    Language : English



Enlaces De Descarga

sper91



Visita mis otros post, da clic AQUI.
Te invito a seguirme asi te enteras cuando posteo mas peliculas asiaticas

Comenta, sugiere, opina, critica (constructivamente) para eso es el espacio de abajo, usalo.

Cualquier problema con los links comenta


Returner 2002 [BRRip-720p] [Japon]
35 Puntos Score: 8.8/10
Visitas: 2764 Favoritos: 9
Ver los usuarios que votaron...
41 Comentarios Returner 2002 [BRRip-720p] [Japon]
Gracias por la pelicula, buen post
File size : 4.37 GiB  ????
es muy buena la pelicula la recomiendo  
@forcenegrete Gracias por pasar amigo

@nomack Esta en mediafire amigo no es tan tardado la descarga. Gracias por pasar y comentar

@pioneer Gracias por pasar y comentar amigo

Aprovecho para etiquetar a @?
@locoyou Quiero comentar en tus post y no puedo   identi esta muy mal estos dias Gracias por pasar amigo
La verdad que est?
@locoyou jajaja cual si mis barras estan horribles son un simple vector con letras, no se usar el photshop como quisiera jeje bueno te iva a decir que me llevo la de Visitor Q y que te iva a dar puntos igual pero no me estan fallando varias cosas entre ello los puntos, cunado esto se componga paso por ahi
no voy a bajar una peli de 4gb. T_T
@alexo yo normalmente bajo y lugo las borro amenos que realmente me guste la pelicula
sper pues muchas gracias my friend, me honras!!!!  jujuju si te gustan las pel?
Cita locoyou: Mostrar
Cita alexo: Mostrar
Cita locoyou: Mostrar
Gracias por este gran aporte...la recomiendo 100%...No Tiene que envidiarle a ninguna super produccion gringa...
Como dato el Protagonista Takeshi Kaneshiro es el mismo que sale el Juego de video Onimusha 1 y 3...Personificando a el personaje Principal de la saga Samanosuke...
@JDPB75 Que bien que te agrade el post amigo gracias por comentar y por los puntos
Genial Genial.. Simplemente Genial amigo.. Por tener en cuenta mi pedido y mas por la calidad del la peli(y excelente post por cierto). La dejo descargando esta noche asi ma?
excelente amigo hace a?
soy uno mas de los que la vio hace tiempo es buenisima y me la vuelvo a descargar gracias   ha que recuerdos y si no fuera mucho pedir tendrias la de Volcano High en esta calidad
Una pelicula entretenida....gracias
  archivo formato desconocido etc etc etc
@nomack lee el post amigo ahi explico como extraer el archivo
File Belongs to Suspended Account  
@jozzze lo siento amigo me suspendieron la cuenta hace un par de horas casi al mismo tiempo que identi se apago vere si la tengo en mi cuenta de respaldo por que hubo cosas que no habia respaldado
fantastico esta completa gracias!
Genial peli, genial aporte! 10 y Reco ahora que funcan las notificaciones! Grax!
Cita sper91: Mostrar
Que bueno que estaban porque esta la tenia pendiente.. ahora me la llevo sin pensarlo. Muchas gracias!!!!!!
man puedes resubir esta peli? telo ruego please!!!!
@La Magra Claro amigo, te aviso en cuanto la tenga. Solo ten paciencia por que ando resabiendo varias cosas tambi?
Cita La Magra: Mostrar

Cita sper91: Mostrar
gracias man. espero. saludos
Cita La Magra: Mostrar
Listo!!! Disfruta la pelicula amigo
Cita sper91: Mostrar
la subiste!!! y por gamefront!!!!! mil gracias man. al bajarla paso y te dejo puntines!!!! te adelanto +5.
@furby_bv Hola, mira pues te comento que todos mis aportes llevan registro de recuperaci?
Buenas, intento descargarla pero no puedo me sale que no se encuentran los archivos, la podrian resubir
No funkan mas los links si la resuben avisenme por favooorrrrr.
lastima que los enlaces siguen fuera de linea al 1000%  
Para dejar un comentario Registrate! o.. eres ya usuario? Accede!