crepusculo amanecer parte 1 [latino]

crepusculo amanecer parte 1 [latino]














El amor que Edward y Bella sienten el uno por el otro se sella con la celebración de una gran ceremonia organizada por Alice. Durante la luna de miel, los recién casados tienen relaciones sexuales y Bella queda embarazada. El rápido crecimiento del feto, mitad humano mitad vampiro, afecta gravemente a su salud, llevándola al borde de la muerte? Primera parte de la adaptación de ?Amanecer? que supone la cuarta entrega de la saga cinematográfica Crepúsculo, basada en las novelas de Stephenie Meyer.





General
Complete name          : C:UsersdanyelDesktoppostsThe.Twilight.Saga.danyel_6.identi.li.avi
Format            : AVI
Format/Info         : Audio Video Interleave
File size          : 699 MiB
Duration           : 1h 57mn
Overall bit rate         : 834 Kbps
Movie name          : The.Twilight.Saga.Danyel_6.IDENTIL.I
Director           : WWW.IDENTI.LI
Genre            : Fántastico
Recorded date          : 27-01-2012
Writing application       : VirtualDubMod 1.5.10.2 (build 2542/release) VirtualDubMod build 2542/release
Copyright          : WwW.IDENTI.LI


Video
ID            : 0
Format            : MPEG-4 Visual
Format profile          : Advanced [email protected]
Format settings, BVOP      : 4
Format settings, QPel      : No
Format settings, GMC       : No warppoints
Format settings, Matrix       : Default (H.263)
Muxing mode         : Packed bitstream
Codec ID           : XVID
Codec ID/Hint          : XviD
Duration           : 1h 57mn
Bit rate           : 713 Kbps
Width            : 608 pixels
Height            : 256 pixels
Display aspect ratio       : 2.40:1
Frame rate          : 23.976 fps
Color space         : YUV
Chroma subsampling        : 4:2:0
Bit depth          : 8 bits
Scan type          : Progressive
Compression mode         : Lossy
Bits/(Pixel*Frame)        : 0.191
Stream size         : 597 MiB (85%)
Writing library         : XviD 64


Audio
ID            : 1
Format            : MPEG Audio
Format version          : Version 1
Format profile          : Layer 3
Mode             : Joint stereo
Mode extension          : MS Stereo
Codec ID           : 55
Codec ID/Hint          : MP3
Duration           : 1h 57mn
Bit rate mode          : Constant
Bit rate           : 112 Kbps
Channel(s)          : 2 channels
Sampling rate          : 44.1 KHz
Compression mode         : Lossy
Delay relative to video       : 800ms
Stream size         : 93.8 MiB (13%)
Alignment          : Split accross interleaves
Interleave, duration       : 42 ms (1.00 video frame)
Interleave, preload duration     : 500 ms
Writing library         : LAME3.98r
Encoding settings        : -m j -V 4 -q 2 -lowpass 15.6 -b 112
Language           : un


























http://www.identi.li


crepusculo amanecer parte 1 [latino]
3 Puntos Score: 3/10
Visitas: 6771 Favoritos: 2
Ver los usuarios que votaron...
37 Comentarios crepusculo amanecer parte 1 [latino]
Exelente.. se ve muy bueno.. bien por mediafire   ...

88 Rapidleech 2012
Muchas gracias AMigo
en que idioma esta?
@arman_88 esta en audio latino amigo esta muy buena la verdad espero te guste
GRacias AMigo Buena Peli
no jalan los links amigo
links caidos!! arreglen!!!!
@windowsf @eltwitydj links listos y funcionando al 100
Gracias por la peli!!! se la estoy descargando para una amiga!  
!   D:DocumentosDescargasposts.part4.rar: Error de CRC en el fichero codificado vct2.danyel_6.avi (?
ok... es re jodido bajar de putlocker... cuando le doy click a Download File me manda a la pagina de inicio de putlocker :S
@Calcifer lo se amigo pero ya me borraron 5 cuentas de mediafire por lo que lo dejare por un rato para que se enfrien las cosas
podrias subir la parte 4 a un rapidshare u otro servidor garka y pasarme link por mp? te lo agradeceria mucho  
D:posts.part4.rar: Error de CRC en el fichero codificado vct2.danyel_6.avi. Fichero da?
@raponshi @Calcifer link nuevo es un solo link
muchisisisimas gracias xD
vamos a ver si asi puedo bajar xD
no sabes pq cuando quiero descargar algo me manda a la pagina de inicio de putlocker?
en jdownloader me dice complemento desactualizado...
Gracias se descargo muy rapido y la peli se ve muy bien gracias.-
@Calcifer no lo bajes con jdowloader yo lo baje con IDM y baja tan rapido como con mediafire .-

Saludos
@Calcifer ni idea amigo a veces ya tambien me pasa lo mismo lo que yo hago es dejar la descarga para otro dia creo que es la pagina la que tiene errores
ya borraron los links :S
Cita Calcifer: Mostrar

los de putlocker siguen activos
links caidos porfavor resubela
Cita Ixbalanque: Mostrar
listo amigo link funcionando
Exelente..!!! solo que soy novato noc como darte puntos    pero muy buena  
gracias por la peli...descarga completa
EXCELENTE BAJADA SIN PROBLEMA DESDE P.......
Cita Nedisane: Mostrar
Seeee   una amiga jejejejje XD
gracias se te agradece +3
@danyel_6 man cual es la contrase?
Para dejar un comentario Registrate! o.. eres ya usuario? Accede!