Oops.. Este post tiene los enlaces eliminados!

Identi revisa las denuncias de los usuarios en busca de enlaces eliminados que no dejan descargar los archivos, este mensaje te informa que este post que estas viendo tiene los enlaces eliminados.

Usa el Buscador

Por favor, te recomendamos que uses el buscador para encontrar más alternativas.

La guia del amante Posiciones Documental+18 latino

  • Categoría: Reciclaje
  • Publicado hace más de 4 años
La guia del amante Posiciones Documental+18 latino

Esta buena película es gracias a @OGTs quien fue el de la info de dicho DOCUMENTAL el cual es para + de 18









TÍTULO ORIGINAL: The Lovers´ Guide - Positions
TÍTULO LATINO : La Guía del Amante - Posiciones
ESCRITOR: Emily Dubberley & Robet Page
PRODUCTOR: Lis Howell
AÑO: 2002
GÉNERO: Documental
Calidad: DVDRIP
Peso: 951 MB
Duración: 56:09 MIN.
Idioma: Español Latino

Info del rip format factory

General
Format                 : AVI
Format/Info              : Audio Video Interleave
File size                : 951 MiB
Duration               : 56mn 9s
Overall bit rate           : 2 368 Kbps
Writing application          : VirtualDubMod 1.5.10.2 (build 2542/release)
Writing library            : VirtualDubMod build 2542/release

Video
ID                   : 0
Format                 : MPEG-4 Visual
Format profile             : Advanced [email protected]
Format settings, BVOP        : 1
Format settings, QPel        : No
Format settings, GMC         : No warppoints
Format settings, Matrix      : Default (H.263)
Muxing mode              : Packed bitstream
Codec ID               : XVID
Codec ID/Hint            : XviD
Duration               : 56mn 9s
Bit rate               : 2 165 Kbps
Width                  : 720 pixels
Height                 : 544 pixels
Display aspect ratio         : 4:3
Frame rate               : 29.970 fps
Color space              : YUV
Chroma subsampling         : 4:2:0
Bit depth                : 8 bits
Scan type                : Progressive
Compression mode           : Lossy
Bits/(Pixel*Frame)         : 0.184
Stream size              : 870 MiB (91%)
Writing library            : XviD 62

Audio
ID                   : 1
Format                 : MPEG Audio
Format version             : Version 1
Format profile             : Layer 3
Mode                   : Joint stereo
Mode extension             : MS Stereo
Codec ID               : 55
Codec ID/Hint            : MP3
Duration               : 55mn 58s
Bit rate mode            : Constant
Bit rate               : 192 Kbps
Channel(s)               : 2 channels
Sampling rate            : 48.0 KHz
Compression mode           : Lossy
Stream size              : 76.9 MiB (8%)
Alignment                : Aligned on interleaves
Interleave, duration         : 33 ms (1.00 video frame)
Interleave, preload duration   : 504 ms
Writing library            : LAME3.98r
Encoding settings          : -m j -V 4 -q 2 -lowpass 18.6 -b 192



Es un documental donde se muestran las diferentes formas de dar y recibir placer, es educativo y tiene se x o explicito con fines educativos.
Aprovechen esta entrega donde se tratan los temas que ven a continuacion y sepan como complacer a su pareja.

Capitulos:
1.- S oral
2.- Hombre arriba
3.- Mujer arriba
4.- Uno al lado del otro
5.- Desde atras
6.- Sentados y parados
7.- Avanzados
8.- S atras
9.- Disfruten
10.- Créditos finales



COMENTEN!!!
La guia del amante Posiciones Documental+18 latino
0 Puntos Score: 0/10
Visitas: 560 Favoritos: 0
6 Comentarios La guia del amante Posiciones Documental+18 latino
- Gracias por el Aporte, pero borra un post tienes 2 iguales.
si pero no se como borrarlo se posteo doble y no se como, le doy en ELIMINAR POST y no me deja. como se hace?
@AkaTosh
Cita Yorvasqz: Mostrar
me dice:   No puedes eliminar tus propios temas en este foro.
Cita AkaTosh: Mostrar
jojojo yo pense que eran dos documentales  
@Yorvasqz Enviale un MP a un moderador con el link del post & el motivo y ellos lo eliminaran.
Para dejar un comentario Registrate! o.. eres ya usuario? Accede!