Oops.. Este post tiene los enlaces eliminados!

Identi revisa las denuncias de los usuarios en busca de enlaces eliminados que no dejan descargar los archivos, este mensaje te informa que este post que estas viendo tiene los enlaces eliminados.

Usa el Buscador

Por favor, te recomendamos que uses el buscador para encontrar más alternativas.

Jisatsu saakuru (Suicide club) DVDRip

  • Categoría: Reciclaje
  • Publicado hace más de 4 años



Para quienes esperaban mis aportes con peliculas japonesas vuelvo a ello les dejo esta pelicula un poco vieja pero muy buena







54 chicas se tiran a las vías del tren. Este suceso es sólo el principio de una serie de suicidios en cadena que se extiende por todo Japón. ¿Tendrá algo que ver el nuevo grupo musical Desert? El detective Kuroda intentará encontrar la respuesta, que no será tan sencilla como él desearía...
FILMAFFINITY



TÍTULO ORIGINAL Jisatsu saakuru (Suicide Club - Suicide Circle)
AÑO 2002
DURACIÓN 99 min
GÉNERO Terror. Intriga. Thriller | J-Horror. Sátira. Gore. Colegios & Universidad. Adolescencia

PAÍS  Japon
DIRECTOR Sion Sono
GUIÓN Sion Sono
MÚSICA Tomoki Hasegawa
FOTOGRAFÍA Tomoki Hasegawa
REPARTO Ryo Ishibashi,  Akaji Maro,  Masatoshi Nagase,  Saya Hagiwara,  Hideo Sako,  Takashi Nomura,  Tamao Satô,  Mai Hosho,  Yoko Kamon,  Rolly,  Kimiko Yo,  Katsuhiro Watanabe
PRODUCTORA For Peace Co. Ltd. / Omega Project


Japones con subs ingles

Si el video no se puede ver dale clic AQUI para verlo en YoTube




Format : AVI
 Format/Info : Audio Video Interleave
 File size : 695 MiB
 Duration : 1h 39mn

 Overall bit rate : 976 Kbps
 Movie name : Suicide Club *Jisatsu circle*
Director : Sion Sono
 Subject : Suicide Club *Jisatsu circle*
 Writing application : Nandub v1.0rc2
 Writing library : Nandub build 1853/release
 Copyright : THEWRETCHED
Video #0
 ID : 0
 Format : MPEG-4 Visual
 Format profile : [email protected]
 Format settings, BVOP : No
 Format settings, QPel : No
 Format settings, GMC : No warppoints
 Format settings, Matrix : Default (MPEG)
 Codec ID : XVID
 Codec ID/Hint : XviD
 Duration : 1h 39mn
 Bit rate : 833 Kbps
 Width : 576 pixels
 Height : 320 pixels

 Display aspect ratio : 16:9
 Frame rate : 23.976 fps
 Color space : YUV
 Chroma subsampling : 4:2:0
 Bit depth : 8 bits
 Scan type : Progressive
 Compression mode : Lossy
 Bits/(Pixel*Frame) : 0.188
 Stream size : 593 MiB (85%)
 Writing library : XviD 0.0.09 (UTC 2003-03-25)
Audio #1
 ID : 1
 Format : MPEG Audio
 Format version : Version 1
 Format profile : Layer 3
 Mode : Joint stereo
 Mode extension : MS Stereo
 Codec ID : 55
 Codec ID/Hint : MP3
 Duration : 1h 39mn
 Bit rate mode : Variable
 Bit rate : 128 Kbps
 Channel(s) : 2 channels

 Sampling rate : 48.0 KHz
 Compression mode : Lossy
 Stream size : 93.1 MiB (13%)
 Alignment : Aligned on interleaves
 Interleave, duration : 24 ms (0.58 video frame)
 Interleave, preload duration : 171 ms
 Writing library : LAME3.92
 Encoding settings : -m j -V 4 -q 2 -lowpass 17.5 --abr 128
Language : Japanese  
Subtittles : Spanish









Contraseña: sper91

3 Partes de 200MB y 1 de 92MB


Enlaces De Descarga



Ciudad de dios
Sucker Punch Extended Cut
The Divide
Pretty Little Liars Temp 1
PrettyLittle Liars Temp 2
The Deep Blue See
Pack de Incribles Wallpapers del espacio
Ballet Shoes
Guilty Of Romance
Love Exposure
Cold Fish
Confesions
The Phantom Of The Opera At Royal Albert Hall 25 Aniversario
Nightwish End Of An Era


Comenta, opina, sugiere, critica(constructivamente) para eso es le espacio de abajo, usalo.
Jisatsu saakuru (Suicide club) DVDRip
7 Puntos Score: 7/10
Visitas: 4049 Favoritos: 5
Ver los usuarios que votaron...
23 Comentarios Jisatsu saakuru (Suicide club) DVDRip
se ve interesante, gracias por el aporte, me gusta el cine japon?
che y si subis la trilogia de peliculas del anterior director que subiste??
solo tengo la utima me faltan dos creo que son las de odio o venganza no recuerdo.
@alexo ya las subi son Love Exposure, Cold Fish y Guilty Of Romance arriba estan los links
Cita sper91: Mostrar
ahh cold fih lo baje... pinta bueno, ahora voy por love exposure.

y ya tengo la trilo LOCOO!!
ohhhhhh vale loko una perra me la habia recomendado hace tiempo
hace tiempo lei esto en reader digest sobre esta peli a ver que tal gracias , la critica constructiva es que no detalles demasiado en cuanto a los valores del encode y trata de agregar el video trailer desde youtube de una vez el resto muy bien saludos socio
@digho quitare algunas cosas del encode pero no entiendo lo de el video trailer desde youtube, hay veces que no se ve ya que el video no puede ser insertado en otras paginas o por que no se permite la reproduccion del video en ciertos paises no entiendo a que te refieras
descargando gracias !!!!
sper91 creo que nose ve por que ese video tiene restringcion de edad, bueno pero no importa gracias igual.
manillo que bueno estos aportes sigue subiendo este tipo de peliculas japonesas son buena  
BAJANO ME LA HAN RECOMENDADO GRACIAS!!!!!!!!
 
pregunta y los subtitulos??
@ENKELI Los subtitulos no estan pegados al video estan ahi en un archivo .srt, junto con el .txt y el acceso directo a identi si los subtitulos no se ven primero conprueba que tengan el mismo nombre solo variando en la extencion (.srt) y esten en la misma carpeta (video y subtitulos) si aun asi no se ven entonces te hace falta un codec lo puedes descargar desde aqui http://www.free-cod*ecs.co*m/download/VobSub.htm solo quita los asteriscos
GRACIAS!!!!!!!!!!!!  
@ENKELI De nada, te recomiendo igual "confessions" arriba esta el link
CHE SE CAYO EL LINK PODES MANDARME LOS LINK DE LA PELI POR MP TE LO AGRADECERIA DEADE YA  
@ROBERCAPO en cuanto la tenga resubida te aviso
saludos
@ROBERCAPO Listo!!! Links reparados Disfruta la pelicula
Cita sper91: Mostrar
GRACIAS AMIGASO DESCARGANDO A 4 DIENTES .... COMO SOY NOVATO TE DEJO UN RECOOOOOOOOOO  
Para dejar un comentario Registrate! o.. eres ya usuario? Accede!