Oops.. Este post tiene los enlaces eliminados!

Identi revisa las denuncias de los usuarios en busca de enlaces eliminados que no dejan descargar los archivos, este mensaje te informa que este post que estas viendo tiene los enlaces eliminados.

Usa el Buscador

Por favor, te recomendamos que uses el buscador para encontrar más alternativas.

Confessions [Kokuhaku] 2010 DVDRip

  • Categoría: Reciclaje
  • Publicado hace más de 4 años

Una pelicula muy recondable a mi me gusto mucho.
"Cine con estilo"
Cita: Mostrar





En un instituto, el último día de clase, una profesora se despide de sus alumnos y, además de anunciarles que deja la escuela, les confiesa que su hija de cuatro años que, aparentemente, murió ahogada en la piscina de la escuela, fue en realidad asesinada por dos estudiantes de esa misma clase. También les hace saber que ya ha puesto en marcha su venganza contra ellos.
FILMAFFINITY



TÍTULO ORIGINAL   Kokuhaku (Confessions)
AÑO 2010
DURACIÓN 106 min.
GÉNERO Thriller. Drama. Intriga | Thriller psicológico. Drama psicológico. Colegios & Universidad

PAÍS  Japon
DIRECTOR Tetsuya Nakashima
GUIÓN Tetsuya Nakashima (Novela: Kanae Minato)
MÚSICA Toyohiko Kanebashi, Boris, Radiohead
FOTOGRAFÍA Shoichi Ato, Atsushi Ozawa
REPARTO Takako Matsu, Masaki Okada, Yoshino Kimura, Yukito Nishii, Kaoru Fujiwara, Makiya Yamaguchi, Soichiro Suzuki, Kinuwo Yamada
PRODUCTORA   DesperaDo / Hakuhodo DY Media Partners / Licri / Nippon Shuppan Hanbai (Nippan) K.K. / Sony Music Entertainment / Toho Company / Yahoo Japan
WEB OFICIAL   http://kokuhaku-shimasu.jp
PREMIOS   2011: Academia japonesa: Mejor película, director, guión, edición y 7 nominaciones
2010: Festival de Sitges: Sección oficial largometrajes a concurso


Castellano

Si el video no se puede ver dale clic AQUI para verlo en YoTube
Sub ingles

Si el video no se puede ver dale clic AQUI para verlo en YoTube





    Format : AVI
    Format/Info : Audio Video Interleave
    File size : 700 MiB
   Duration : 1h 46mn

    Overall bit rate : 918 Kbps
    Writing application : VirtualDubMod 1.5.10.2 (build 2540/release)
    Writing library : VirtualDubMod build 2540/release
 Video #0
    ID : 0
    Format : MPEG-4 Visual
    Format profile : Advanced [email protected]
    Format settings, BVOP : No
    Format settings, QPel : No
    Format settings, GMC : No warppoints
    Format settings, Matrix : Default (MPEG)
    Codec ID : XVID
    Codec ID/Hint : XviD
    Duration : 1h 46mn
    Bit rate : 776 Kbps
    Width : 624 pixels
   Height : 352 pixels

    Display aspect ratio : 16:9
    Frame rate : 23.976 fps
    Color space : YUV
    Chroma subsampling : 4:2:0
    Bit depth : 8 bits
    Scan type : Progressive
    Compression mode : Lossy
    Bits/(Pixel*Frame) : 0.147
    Stream size : 591 MiB (84%)
    Writing library : XviD 1.2.1 (UTC 2008-12-04)
 Audio #1
    ID : 1
    Format : MPEG Audio
    Format version : Version 1
    Format profile : Layer 3
    Mode : Joint stereo
    Mode extension : MS Stereo
    Codec ID : 55
    Codec ID/Hint : MP3
    Duration : 1h 46mn
    Bit rate mode : Variable
   Bit rate : 128 Kbps
   Channel(s) : 2 channels

    Sampling rate : 48.0 KHz
    Compression mode : Lossy
    Stream size : 99.1 MiB (14%)
    Alignment : Aligned on interleaves
    Interleave, duration : 24 ms (0.58 video frame)
    Interleave, preload duration : 141 ms
    Writing library : LAME3.90.
    Encoding settings : -m j -V 4 -q 2 -lowpass 17.6 --abr 128
   Language : Japanese
   Subtittles : Spanish









Contraseña: sper91

Avisen si hay problemas con el Spoiler para sacarlo si aun no funciona

3 Partes de 200MB y 1 de 94MB Total 694MB


Enlaces De Descarga




Ciudad de dios
Sucker Punch Extended Cut
The Divide
Pretty Little Liars Temp 1
PrettyLittle Liars Temp 2
The Deep Blue See
Pack de Incribles Wallpapers del espacio
Ballet Shoes
Guilty Of Romance
Love Exposure
Cold Fish



Comenta, sugiere, opina, critica (constructivamente) Para eso es el espacio de abajo, usalo.



Confessions [Kokuhaku] 2010 DVDRip
10 Puntos Score: 10/10
Visitas: 2953 Favoritos: 4
Ver los usuarios que votaron...
11 Comentarios Confessions [Kokuhaku] 2010 DVDRip
tienes un buen repertorio de cine de terror japones muy bueno!! te sigo!    saludos amigo!  
Que pedasos de pel?
Disculpa pero olvidate subir los subtitulos
detesto las pelis o animes sobre estudiantes, esta peli es buena?
Cita inoue: Mostrar
Espero te gusten los proximos 2 post que no tienen nada que ver con japon jeje pero despues de esos vuelvo con las peliculas japonesas


Cita Valykan: Mostrar
Hola sper91, antes que nada gracias por tu aporte, sin duda alguna una de las mejores pel?
@lamancha2 Si te soy sincero amigo no se que sea un dvd 5 si me lo explicas con gusto veo que puedo hacer
Cita sper91: Mostrar


no subas un dvd entero, subite un otra pelis buenas esta la bajo por recomendacion tuya haber que onda.

si no, tengo una bomba para tu casa.
Perdon pero no entiendo esto..xq cuando voy al link para descargar aparece para bajar un archivo q dice: "Cnfs" y pesa 145 B o.O .. esa es la peli ??
@ByakueiD   es un texto con el link de la carpeta adentro
Ahh ok gracias XD
Para dejar un comentario Registrate! o.. eres ya usuario? Accede!